Filmbol Forum Film İndir 1080P v Ölüm Defteri: Son İsim (Death Note - Desu nôto: The Last Name) - 2006 - TR+ORG - 1080P | tt0810827

Premium Üyelik Al

Bildirimi Kapat
Mega linklerinin şikayet edilmemesi için global erişime kapatıp sadece yorum yapanlara açıyoruz. Bu linkleri gizleme işlemini mecburen yapıyoruz ve yorum yapmanızın siteye değil size faydası vardır. Teşekkürler yazmayı çok görüp, Random/Spam/Anlamsız mesajlar atarak forumu kirletip Mega linklerini açmaya çalışan kullanıcılara süresiz ban atacağız.


Ölüm Defteri: Son İsim (Death Note - Desu nôto: The Last Name) - 2006 - TR+ORG - 1080P | tt0810827
TheSteeL
Ölüm Defteri: Son İsim (Death Note - Desu nôto: The Last Name) - 2006 - TR+ORG - 1080P | tt0810827
2
19
  • Derecelendirme: 0/5 - 0 oy
  • 1
  • 2
  • 3
  • 4
  • 5
Konuyu Okuyanlar:1 Ziyaretçi
Şuan Online!
Filmin Yayınlanma Tarihi: 2006 
WWW
Şuan Online!
TheSteeL Süper Moderatör
*****
Süper Moderatör



 Ölüm Defteri: Son İsim



İlginç yapısı ile dikkatleri üzerine toplamış olan film, serinin devam filmini hemen aynı sene içerisinde çıkarmayı başarmıştır. İlk film üzerinden devam eden konu, işleri daha karmaşık hale getirecek ve olaylar farklı yöne doğru evrilmeye başlayacaktır...

Ölüm Defteri: Son İsim (2006) (Death Note - Desu nôto: The Last Name) | tt0810827 Filmi Imdb'den 16000 kişi tarafından oylandı ve 7,2 puan aldı. Bu film için editör puanı %65 olarak belirlendi. İyi Seyirler!

Teknik Detaylar

Kod :
General
Unique ID                                : 329932733625020559432885648367718738674 (0xF836BBAE8D376ADB0BFE61AF55E7AAF2)
Complete name                            : /home/TheSteel/Desktop/1/Ölüm.Defteri.Son.İsim.2006.1080p.BluRay.x264.TR.JPN.Filmbol.mkv
Format                                   : Matroska
Format version                           : Version 4
File size                                : 2.80 GiB
Duration                                 : 2 h 20 min
Overall bit rate                         : 2 855 kb/s
Movie name                               : Ölüm Defteri: Son İsim - Death Note: The Last Name - 2006 | Filmbol.org
Encoded date                             : UTC 2021-06-04 11:34:16
Writing application                      : mkvmerge v31.0.0 ('Dolores In A Shoestand') 64-bit
Writing library                          : libebml v1.3.6 + libmatroska v1.4.9

Video
ID                                       : 1
Format                                   : AVC
Format/Info                              : Advanced Video Codec
Format profile                           : [email protected]
Format settings                          : CABAC / 4 Ref Frames
Format settings, CABAC                   : Yes
Format settings, Reference frames        : 4 frames
Codec ID                                 : V_MPEG4/ISO/AVC
Duration                                 : 2 h 20 min
Bit rate                                 : 2 500 kb/s
Width                                    : 1 920 pixels
Height                                   : 1 080 pixels
Display aspect ratio                     : 16:9
Frame rate mode                          : Constant
Frame rate                               : 23.976 (23976/1000) FPS
Color space                              : YUV
Chroma subsampling                       : 4:2:0
Bit depth                                : 8 bits
Scan type                                : Progressive
Bits/(Pixel*Frame)                       : 0.050
Stream size                              : 2.45 GiB (88%)
Title                                    : 1080P - Filmbol.org
Writing library                          : x264 core 148 r2638M 7599210
Encoding settings                        : cabac=1 / ref=4 / deblock=1:-1:-1 / analyse=0x3:0x113 / me=umh / subme=9 / psy=1 / psy_rd=1.00:0.15 / mixed_ref=1 / me_range=24 / chroma_me=1 / trellis=2 / 8x8dct=1 / cqm=0 / deadzone=21,11 / fast_pskip=1 / chroma_qp_offset=-3 / threads=32 / lookahead_threads=4 / sliced_threads=0 / nr=0 / decimate=1 / interlaced=0 / bluray_compat=0 / constrained_intra=0 / bframes=3 / b_pyramid=2 / b_adapt=2 / b_bias=0 / direct=3 / weightb=1 / open_gop=0 / weightp=2 / keyint=250 / keyint_min=25 / scenecut=40 / intra_refresh=0 / rc_lookahead=50 / rc=2pass / mbtree=1 / bitrate=2500 / ratetol=1.0 / qcomp=0.60 / qpmin=0 / qpmax=69 / qpstep=4 / cplxblur=20.0 / qblur=0.5 / vbv_maxrate=31250 / vbv_bufsize=31250 / nal_hrd=none / filler=0 / ip_ratio=1.40 / aq=3:1.00
Default                                  : Yes
Forced                                   : No

Audio #1
ID                                       : 2
Format                                   : AAC LC
Format/Info                              : Advanced Audio Codec Low Complexity
Codec ID                                 : A_AAC-2
Duration                                 : 2 h 16 min
Bit rate                                 : 132 kb/s
Channel(s)                               : 2 channels
Channel layout                           : L R
Sampling rate                            : 32.0 kHz
Frame rate                               : 31.250 FPS (1024 SPF)
Compression mode                         : Lossy
Delay relative to video                  : 24 ms
Stream size                              : 128 MiB (4%)
Title                                    : Türkçe - Filmbol.org
Language                                 : Turkish
Default                                  : Yes
Forced                                   : No

Audio #2
ID                                       : 3
Format                                   : AAC LC
Format/Info                              : Advanced Audio Codec Low Complexity
Codec ID                                 : A_AAC-2
Duration                                 : 2 h 20 min
Bit rate                                 : 224 kb/s
Channel(s)                               : 6 channels
Channel layout                           : C L R Ls Rs LFE
Sampling rate                            : 48.0 kHz
Frame rate                               : 46.875 FPS (1024 SPF)
Compression mode                         : Lossy
Stream size                              : 225 MiB (8%)
Title                                    : Orjinal Dil - Filmbol.org
Language                                 : Japanese
Default                                  : No
Forced                                   : No

Text
ID                                       : 4
Format                                   : UTF-8
Codec ID                                 : S_TEXT/UTF8
Codec ID/Info                            : UTF-8 Plain Text
Duration                                 : 2 h 13 min
Bit rate                                 : 59 b/s
Count of elements                        : 1816
Stream size                              : 58.6 KiB (0%)
Title                                    : Türkçe - Filmbol.org
Language                                 : Turkish
Default                                  : No
Forced                                   : No

Film Detayları


 Ölüm Defteri: Son İsim

 Ölüm Defteri: Son İsim

 Ölüm Defteri: Son İsim


Film Fragmanı


Film Detayları

Uptobox ile indir

1Fichier ile indir

1Fichier'den İndiremiyor musun? Tıklayın!


Mega linki şuan da gizli. Kullanıma açmak için konuya yorum yapın ve ardından sayfayı yenileyin.

Mega


Bunun için üzgünüz ancak, bu linke sadece premium üyeler erişebilir.

Filmbol Cloud





Şuan Offine!
Şuan Offine!
Ugur_1988 Premium Üye
****

  • Konular11
  • Mesajlar100
  • Rep puanı 23
Görüntüsü çok iyi olmuş elinize sağlık.
Şuan Online!
Şuan Online!
TheSteeL Süper Moderatör
*****
Süper Moderatör

(06-06-2021, Saat: 11:08)Ugur_1988 Adlı Kullanıcıdan Alıntı: Görüntüsü çok iyi olmuş elinize sağlık.
Teşekkürler İyi Seyirler


Hızlı Menü: