Filmbol Forum Film İndir BRRip XviD v Ölüm Defteri: Son İsim (Death Note - Desu nôto: The Last Name) - 2006 - TR - BRRip XviD | tt0810827
Bildirimi Kapat
Merhaba , site giderlerini bir nebze olsun karşılamak adına link kısaltma servisleri kullanmaya başladık. İndirme linkleri sizi ouo.io adresinde yönlendirecek, 3 saniye geçtikten sonra Get Link butonuna tıklayarak linke ulaşacaksınız. Premium üyeler bu durumdan etkilenmeyecektir.


Premium Üyelik Al

Ölüm Defteri: Son İsim (Death Note - Desu nôto: The Last Name) - 2006 - TR - BRRip XviD | tt0810827
TheSteeL
Ölüm Defteri: Son İsim (Death Note - Desu nôto: The Last Name) - 2006 - TR - BRRip XviD | tt0810827
2
43
  • Derecelendirme: 0/5 - 0 oy
  • 1
  • 2
  • 3
  • 4
  • 5
Konuyu Okuyanlar:1 Ziyaretçi
Şuan Online!
Filmin Yayınlanma Tarihi: 2006 
Şuan Online!
TheSteeL Chief Executive Officer
******
CEO


 Ölüm Defteri: Son İsim



İlginç yapısı ile dikkatleri üzerine toplamış olan film, serinin devam filmini hemen aynı sene içerisinde çıkarmayı başarmıştır. İlk film üzerinden devam eden konu, işleri daha karmaşık hale getirecek ve olaylar farklı yöne doğru evrilmeye başlayacaktır...

Ölüm Defteri: Son İsim (2006) (Death Note - Desu nôto: The Last Name) | tt0810827 Filmi Imdb'den 16000 kişi tarafından oylandı ve 7,2 puan aldı. Bu film için editör puanı %65 olarak belirlendi. İyi Seyirler!

Teknik Detaylar

Kod :
General
Unique ID                                : 42486208221111256634218570932154283336 (0x1FF68BCAD3D24A1E99608F7315F03548)
Complete name                            : /home/TheSteel/Desktop/1/Olüm.Defteri.Son.İsim.2006.BRRip.Xvid.TR.Filmbol.avi
Format                                   : Matroska
Format version                           : Version 4
File size                                : 985 MiB
Duration                                 : 2 h 20 min
Overall bit rate                         : 981 kb/s
Encoded date                             : UTC 2021-06-05 09:16:13
Writing application                      : mkvmerge v31.0.0 ('Dolores In A Shoestand') 64-bit
Writing library                          : libebml v1.3.6 + libmatroska v1.4.9
FileExtension_Invalid                    : mkv mk3d mka mks

Video
ID                                       : 1
Format                                   : MPEG-4 Visual
Format profile                           : Advanced [email protected]
Format settings                          : BVOP2
Format settings, BVOP                    : 2
Format settings, QPel                    : No
Format settings, GMC                     : No warppoints
Format settings, Matrix                  : Default (H.263)
Codec ID                                 : V_MS/VFW/FOURCC / DIVX
Codec ID/Info                            : Project Mayo
Codec ID/Hint                            : DivX 4
Duration                                 : 2 h 20 min
Bit rate                                 : 855 kb/s
Width                                    : 672 pixels
Height                                   : 378 pixels
Display aspect ratio                     : 16:9
Frame rate mode                          : Constant
Frame rate                               : 23.976 (24000/1001) FPS
Color space                              : YUV
Chroma subsampling                       : 4:2:0
Bit depth                                : 8 bits
Scan type                                : Progressive
Compression mode                         : Lossy
Bits/(Pixel*Frame)                       : 0.140
Stream size                              : 858 MiB (87%)
Title                                    : Filmbol.org
Writing library                          : XviD 67
Default                                  : Yes
Forced                                   : No

Audio
ID                                       : 2
Format                                   : MPEG Audio
Format version                           : Version 1
Format profile                           : Layer 3
Codec ID                                 : A_MPEG/L3
Codec ID/Hint                            : MP3
Duration                                 : 2 h 16 min
Bit rate mode                            : Constant
Bit rate                                 : 128 kb/s
Channel(s)                               : 2 channels
Sampling rate                            : 32.0 kHz
Frame rate                               : 27.778 FPS (1152 SPF)
Compression mode                         : Lossy
Stream size                              : 125 MiB (13%)
Title                                    : Türkçe - Filmbol.org
Writing library                          : LAME3.100UUUUUUUU+2’
Default                                  : Yes
Forced                                   : No

Film Detayları


 Ölüm Defteri: Son İsim

 Ölüm Defteri: Son İsim

 Ölüm Defteri: Son İsim


Film Fragmanı


Film Detayları



Zip Şifresi: filmbol.org Aşağıdaki butona tıklayarak kopyalabilirsiniz.



Uptobox ile indir

1Fichier ile indir

1Fichier'den İndiremiyor musun? Tıklayın!





Filmbol Cloud

Bunun için üzgünüz ancak, bu linke sadece premium üyeler erişebilir.




WWW
Şuan Offine!
Şuan Offine!
Furkan61 Cezalı Üye
  • Konular0
  • Mesajlar329
Teşekkürler
Şuan Online!
Şuan Online!
TheSteeL Chief Executive Officer
******
CEO
(06-06-2021, Saat: 02:04)Furkan61 Adlı Kullanıcıdan Alıntı: Teşekkürler
iyi Seyirler


Hızlı Menü: