Filmbol Forum Film İndir FHD - FULL HD v Ocean's 8 (Ocean's Eight) - 2018 - TR+ORG - FHD - x264 | tt5164214
Bildirimi Kapat
Merhaba , site giderlerini bir nebze olsun karşılamak adına link kısaltma servisleri kullanmaya başladık. İndirme linkleri sizi ouo.io adresinde yönlendirecek, 3 saniye geçtikten sonra Get Link butonuna tıklayarak linke ulaşacaksınız. Premium üyeler bu durumdan etkilenmeyecektir.


Premium Üyelik Al

Ocean's 8 (Ocean's Eight) - 2018 - TR+ORG - FHD - x264 | tt5164214
BroserBros
Ocean's 8 (Ocean's Eight) - 2018 - TR+ORG - FHD - x264 | tt5164214
0
30
  • Derecelendirme: 0/5 - 0 oy
  • 1
  • 2
  • 3
  • 4
  • 5
Konuyu Okuyanlar:2 Ziyaretçi
Şuan Online!
Filmin Yayınlanma Tarihi: 2018 
Şuan Online!
BroserBros Kurucu Admin
*******
Admin


 Ocean's 8



Ocean’s serisinde George Clooney’nin canlandırdığı Danny Ocean’ın kız kardeşi olan Debbie Ocean, beş yıllık bir hapsin ardından serbest kalmıştır. Ancak planı özgürlüğünü kazandığı gibi tatile gitmek ya da sakin bir hayata geçiş yapmak değildir. Debbie hemen yeni bir soygun planına girişir. Yıldızlar yağmurunun yaşandığı Met Galası’nı hedef alan Debbie, soygun için Lou, Nine Ball, Amita, Constance, Rose, Daphne Kluger ve Tammy’den oluşan mükemmel bir kadroyu toplar ve sekiz kişilik bu usta hırsız grubu, mükemmel soygun için kolları sıvarlar. En önemli hedefleri ise Daphne Kluger’ın boynundaki değerli gerdanlıktır…

Ocean's 8 (2018) (Ocean's Eight) | tt5164214 Filmi Imdb'den 200,000 kişi tarafından oylandı ve 6,9 puan aldı. Bu film için editör puanı %78 olarak belirlendi. İyi Seyirler!

Teknik Detaylar

Kod :
General
Unique ID                                : 227480167046686862555376319043494690502 (0xAB231627F0BF7FD8D0FC4D6380433EC6)
Complete name                            : /home/BroserBros/Desktop/8/Oceans.8.2018.FHD.BluRay.x264.TR.ENG.Filmbol.mkv
Format                                   : Matroska
Format version                           : Version 4
File size                                : 4.07 GiB
Duration                                 : 1 h 50 min
Overall bit rate                         : 5 289 kb/s
Movie name                               : Ocean's 8 - 2018 | Filmbol.org
Encoded date                             : UTC 2021-06-04 16:19:48
Writing application                      : mkvmerge v53.0.0 ('Fool's Gold') 64-bit
Writing library                          : libebml v1.4.1 + libmatroska v1.6.2

Video
ID                                       : 1
Format                                   : AVC
Format/Info                              : Advanced Video Codec
Format profile                           : [email protected]
Format settings                          : CABAC / 1 Ref Frames
Format settings, CABAC                   : Yes
Format settings, Reference frames        : 1 frame
Codec ID                                 : V_MPEG4/ISO/AVC
Duration                                 : 1 h 50 min
Bit rate mode                            : Constant
Bit rate                                 : 4 750 kb/s
Width                                    : 1 920 pixels
Height                                   : 804 pixels
Display aspect ratio                     : 2.40:1
Frame rate mode                          : Constant
Frame rate                               : 23.976 (24000/1001) FPS
Color space                              : YUV
Chroma subsampling                       : 4:2:0
Bit depth                                : 8 bits
Scan type                                : Progressive
Bits/(Pixel*Frame)                       : 0.128
Stream size                              : 3.58 GiB (88%)
Title                                    : FHD - Filmbol.org
Default                                  : Yes
Forced                                   : No
Color range                              : Limited
Color primaries                          : BT.709
Transfer characteristics                 : BT.709
Matrix coefficients                      : BT.709

Audio #1
ID                                       : 2
Format                                   : AC-3
Format/Info                              : Audio Coding 3
Commercial name                          : Dolby Digital
Codec ID                                 : A_AC3
Duration                                 : 1 h 50 min
Bit rate mode                            : Constant
Bit rate                                 : 192 kb/s
Channel(s)                               : 2 channels
Channel layout                           : L R
Sampling rate                            : 48.0 kHz
Frame rate                               : 31.250 FPS (1536 SPF)
Compression mode                         : Lossy
Delay relative to video                  : -5 ms
Stream size                              : 151 MiB (4%)
Title                                    : Türkçe - Filmbol.org
Language                                 : Turkish
Service kind                             : Complete Main
Default                                  : Yes
Forced                                   : Yes

Audio #2
ID                                       : 3
Format                                   : AC-3
Format/Info                              : Audio Coding 3
Commercial name                          : Dolby Digital
Codec ID                                 : A_AC3
Duration                                 : 1 h 50 min
Bit rate mode                            : Constant
Bit rate                                 : 448 kb/s
Channel(s)                               : 6 channels
Channel layout                           : L R C LFE Ls Rs
Sampling rate                            : 48.0 kHz
Frame rate                               : 31.250 FPS (1536 SPF)
Compression mode                         : Lossy
Delay relative to video                  : -5 ms
Stream size                              : 353 MiB (8%)
Title                                    : Orijinal Dil - Filmbol.org
Language                                 : English
Service kind                             : Complete Main
Default                                  : No
Forced                                   : No

Text
ID                                       : 4
Format                                   : UTF-8
Codec ID                                 : S_TEXT/UTF8
Codec ID/Info                            : UTF-8 Plain Text
Duration                                 : 1 h 43 min
Bit rate                                 : 66 b/s
Count of elements                        : 1618
Stream size                              : 50.3 KiB (0%)
Title                                    : Türkçe - Filmbol.org
Language                                 : Turkish
Default                                  : No
Forced                                   : No

Film Detayları


 Ocean's 8

 Ocean's 8

 Ocean's 8


Film Fragmanı


Film Detayları



Zip Şifresi: filmbol.org Aşağıdaki butona tıklayarak kopyalabilirsiniz.

Mega linkiniz:








Bunun için üzgünüz ancak, bu linke sadece premium üyeler erişebilir.

Filmbol Cloud





WWW


Hızlı Menü: