⤤ Premium'a Yükselt
Filmbol Forum Film İndir 1080P v Ocean's 8 (Ocean's Eight) - 2018 - TR+ORG - 1080P | tt5164214

Filmbol TV kullanıma açıldı. Bu adresten giriş yapabilirsin: Giriş





Ocean's 8 (Ocean's Eight) - 2018 - TR+ORG - 1080P | tt5164214
BroserBros
Ocean's 8 (Ocean's Eight) - 2018 - TR+ORG - 1080P | tt5164214
8
994
  • Derecelendirme: 0/5 - 0 oy
  • 1
  • 2
  • 3
  • 4
  • 5
Konuyu Okuyanlar:2 Ziyaretçi
Şuan Online!
Filmin Yayınlanma Tarihi: 2018 
WWW
Rapor Et!
Şuan Online!
BroserBros Kurucu Admin
*******
Admin



 Ocean's 8



Ocean’s serisinde George Clooney’nin canlandırdığı Danny Ocean’ın kız kardeşi olan Debbie Ocean, beş yıllık bir hapsin ardından serbest kalmıştır. Ancak planı özgürlüğünü kazandığı gibi tatile gitmek ya da sakin bir hayata geçiş yapmak değildir. Debbie hemen yeni bir soygun planına girişir. Yıldızlar yağmurunun yaşandığı Met Galası’nı hedef alan Debbie, soygun için Lou, Nine Ball, Amita, Constance, Rose, Daphne Kluger ve Tammy’den oluşan mükemmel bir kadroyu toplar ve sekiz kişilik bu usta hırsız grubu, mükemmel soygun için kolları sıvarlar. En önemli hedefleri ise Daphne Kluger’ın boynundaki değerli gerdanlıktır…

Ocean's 8 (2018) (Ocean's Eight) | tt5164214 Filmi Imdb'den 200,000 kişi tarafından oylandı ve 6,9 puan aldı. Bu film için editör puanı %78 olarak belirlendi. İyi Seyirler!

Teknik Detaylar

Kod :
General
Unique ID                                : 7105144277635913195827766969270133688 (0x55866A8BECC839628A352D71CF1E3B8)
Complete name                            : /home/BroserBros/Desktop/8/Oceans.8.2018.1080p.BluRay.x264.TR.ENG.Filmbol.mkv
Format                                   : Matroska
Format version                           : Version 4
File size                                : 1.95 GiB
Duration                                 : 1 h 50 min
Overall bit rate                         : 2 535 kb/s
Movie name                               : Ocean's 8 - 2018 | Filmbol.org
Encoded date                             : UTC 2021-06-04 16:17:38
Writing application                      : mkvmerge v53.0.0 ('Fool's Gold') 64-bit
Writing library                          : libebml v1.4.1 + libmatroska v1.6.2

Video
ID                                       : 1
Format                                   : AVC
Format/Info                              : Advanced Video Codec
Format profile                           : [email protected]
Format settings                          : CABAC / 4 Ref Frames
Format settings, CABAC                   : Yes
Format settings, Reference frames        : 4 frames
Codec ID                                 : V_MPEG4/ISO/AVC
Duration                                 : 1 h 50 min
Bit rate                                 : 2 150 kb/s
Width                                    : 1 920 pixels
Height                                   : 800 pixels
Display aspect ratio                     : 2.40:1
Frame rate mode                          : Constant
Frame rate                               : 23.976 (24000/1001) FPS
Color space                              : YUV
Chroma subsampling                       : 4:2:0
Bit depth                                : 8 bits
Scan type                                : Progressive
Bits/(Pixel*Frame)                       : 0.058
Stream size                              : 1.65 GiB (85%)
Title                                    : 1080P - Filmbol.org
Writing library                          : x264 core 155
Encoding settings                        : cabac=1 / ref=4 / deblock=1:-1:-1 / analyse=0x3:0x133 / me=umh / subme=9 / psy=1 / psy_rd=1.00:0.15 / mixed_ref=1 / me_range=24 / chroma_me=1 / trellis=2 / 8x8dct=1 / cqm=0 / deadzone=21,11 / fast_pskip=0 / chroma_qp_offset=-3 / threads=18 / lookahead_threads=1 / sliced_threads=0 / nr=0 / decimate=1 / interlaced=0 / bluray_compat=0 / constrained_intra=0 / bframes=3 / b_pyramid=2 / b_adapt=2 / b_bias=0 / direct=3 / weightb=1 / open_gop=0 / weightp=2 / keyint=250 / keyint_min=23 / scenecut=40 / intra_refresh=0 / rc_lookahead=60 / rc=2pass / mbtree=1 / bitrate=2150 / ratetol=1.0 / qcomp=0.60 / qpmin=0 / qpmax=69 / qpstep=4 / cplxblur=20.0 / qblur=0.5 / vbv_maxrate=31250 / vbv_bufsize=31250 / nal_hrd=none / filler=0 / ip_ratio=1.40 / aq=1:1.00
Default                                  : Yes
Forced                                   : No

Audio #1
ID                                       : 2
Format                                   : AC-3
Format/Info                              : Audio Coding 3
Commercial name                          : Dolby Digital
Codec ID                                 : A_AC3
Duration                                 : 1 h 50 min
Bit rate mode                            : Constant
Bit rate                                 : 192 kb/s
Channel(s)                               : 2 channels
Channel layout                           : L R
Sampling rate                            : 48.0 kHz
Frame rate                               : 31.250 FPS (1536 SPF)
Compression mode                         : Lossy
Stream size                              : 151 MiB (8%)
Title                                    : Türkçe - Filmbol.org
Language                                 : Turkish
Service kind                             : Complete Main
Default                                  : Yes
Forced                                   : Yes

Audio #2
ID                                       : 3
Format                                   : AC-3
Format/Info                              : Audio Coding 3
Commercial name                          : Dolby Digital
Codec ID                                 : A_AC3
Duration                                 : 1 h 50 min
Bit rate mode                            : Constant
Bit rate                                 : 192 kb/s
Channel(s)                               : 2 channels
Channel layout                           : L R
Sampling rate                            : 48.0 kHz
Frame rate                               : 31.250 FPS (1536 SPF)
Compression mode                         : Lossy
Stream size                              : 151 MiB (8%)
Title                                    : Orijinal Dil - Filmbol.org
Language                                 : English
Service kind                             : Complete Main
Default                                  : No
Forced                                   : No

Text
ID                                       : 4
Format                                   : UTF-8
Codec ID                                 : S_TEXT/UTF8
Codec ID/Info                            : UTF-8 Plain Text
Duration                                 : 1 h 43 min
Bit rate                                 : 66 b/s
Count of elements                        : 1618
Stream size                              : 50.3 KiB (0%)
Title                                    : Türkçe - Filmbol.org
Language                                 : Turkish
Default                                  : No
Forced                                   : No

Film Detayları


 Ocean's 8

 Ocean's 8

 Ocean's 8


Film Fragmanı


Film İndir


Rar Şifresi: filmbol.org


Uptobox ile indir

1Fichier ile indir

1Fichier'den İndiremiyor musun? Tıklayın!












Şuan Offine!
Rapor Et!
Şuan Offine!
sadred Cezalı Üye
  • Konular0
  • Mesajlar6
aaaaaaaa
Şuan Offine!
Rapor Et!
Şuan Offine!
hakan8444 Uzman Üye
**
Uzman Üye
  • Konular0
  • Mesajlar11
  • Rep puanı 0
Teşekkürler.
Şuan Offine!
Rapor Et!
Şuan Offine!
Filmmakinası Üye
*
Üye
  • Konular0
  • Mesajlar14
  • Rep puanı 0
müq aga eyw
Şuan Offine!
Rapor Et!
Şuan Offine!
murassai Uzman Üye
**
Uzman Üye
  • Konular0
  • Mesajlar13
  • Rep puanı 0
izlemedim
Şuan Offine!
Rapor Et!
Şuan Offine!
BlackJuan Süper Üye
***
Super Üye
  • Konular0
  • Mesajlar36
  • Rep puanı 0
thanks
Şuan Online!
Rapor Et!
Şuan Online!
BroserBros Kurucu Admin
*******
Admin
05.06.2021 Yönetici Notu:

Kırık linkler kontrol edildi, kaldırıldı ve yenilendi. Tüm linkler tamamen çalışır durumda.
Şuan Offine!
Rapor Et!
Şuan Offine!
trmntrmn Süper Üye
***
Super Üye
  • Konular0
  • Mesajlar802
  • Rep puanı 11
Teşekkürler.
Şuan Offine!
Rapor Et!
Şuan Offine!
donatus Üye
*
Üye
  • Konular0
  • Mesajlar1
  • Rep puanı 0
Teşekkürler.


Hızlı Menü: