Filmbol Forum Film İndir FHD - FULL HD v Çılgın Zengin Asyalılar (Crazy Rich Asians) - 2018 - TR+ORG - FHD - x264 | tt3104988
Bildirimi Kapat
Merhaba , site giderlerini bir nebze olsun karşılamak adına link kısaltma servisleri kullanmaya başladık. İndirme linkleri sizi ouo.io adresinde yönlendirecek, 3 saniye geçtikten sonra Get Link butonuna tıklayarak linke ulaşacaksınız. Premium üyeler bu durumdan etkilenmeyecektir.


Premium Üyelik Al

Çılgın Zengin Asyalılar (Crazy Rich Asians) - 2018 - TR+ORG - FHD - x264 | tt3104988
BroserBros
Çılgın Zengin Asyalılar (Crazy Rich Asians) - 2018 - TR+ORG - FHD - x264 | tt3104988
1
30
  • Derecelendirme: 0/5 - 0 oy
  • 1
  • 2
  • 3
  • 4
  • 5
Konuyu Okuyanlar:2 Ziyaretçi
Şuan Online!
Filmin Yayınlanma Tarihi: 2018 
Şuan Online!
BroserBros Kurucu Admin
*******
Admin


 Çılgın Zengin Asyalılar



New Yorklu Rachel Chu, uzun zamandır Nick Young ile birliktedir. Rachel, Nick’in en yakın arkadaşının düğününde sevgilisine eşlik etmek için Singapur’a gider. Genç kadın Asya’ya ilk defa gidecek olmaktan oldukça heyecanlıdır fakat bir yandan da büyük bir stres altındadır. Singapur’da Nick’in ailesi ile tanışacak olmaktan endişe duyan Rachel, bu sırada sevgilisi ile ilgili bilmediği şeyler öğrenir. Nick, ülkenin en zengin ailelerinden birine sahiptir ve o ülkedeki gözde bekarlardan biridir. Rachel, Singapur’a ayak bastığı andan itibaren tüm gözler ona çevrilir. Genç kadının çevresi bir anda onu kıskanan ve Nick’ten ayırmayı planlayan insanlarla dolar.

Çılgın Zengin Asyalılar (2018) (Crazy Rich Asians) | tt3104988 Filmi Imdb'den 150,000 kişi tarafından oylandı ve 6,9 puan aldı. Bu film için editör puanı %67 olarak belirlendi. İyi Seyirler!

Teknik Detaylar

Kod :
General
Unique ID                                : 28666099570749282446815780828596790404 (0x1590E3D41AC679A32DC94F83A08DE484)
Complete name                            : /home/BroserBros/Desktop/2/Çılgın.Zengin.Asyalılar.2018.FHD.BluRay.x264.TR.ENG.Filmbol.mkv
Format                                   : Matroska
Format version                           : Version 4
File size                                : 9.01 GiB
Duration                                 : 2 h 0 min
Overall bit rate                         : 10.7 Mb/s
Movie name                               : Çılgın Zengin Asyalılar - Crazy Rich Asians - 2018 | Filmbol.org
Encoded date                             : UTC 2021-06-04 14:11:22
Writing application                      : mkvmerge v53.0.0 ('Fool's Gold') 64-bit
Writing library                          : libebml v1.4.1 + libmatroska v1.6.2

Video
ID                                       : 1
Format                                   : AVC
Format/Info                              : Advanced Video Codec
Format profile                           : [email protected]
Format settings                          : CABAC / 5 Ref Frames
Format settings, CABAC                   : Yes
Format settings, Reference frames        : 5 frames
Codec ID                                 : V_MPEG4/ISO/AVC
Duration                                 : 2 h 0 min
Bit rate                                 : 8 867 kb/s
Width                                    : 1 920 pixels
Height                                   : 800 pixels
Display aspect ratio                     : 2.40:1
Frame rate mode                          : Constant
Frame rate                               : 23.976 FPS
Color space                              : YUV
Chroma subsampling                       : 4:2:0
Bit depth                                : 8 bits
Scan type                                : Progressive
Bits/(Pixel*Frame)                       : 0.241
Stream size                              : 7.46 GiB (83%)
Title                                    : FHD - Filmbol.org
Writing library                          : x264 core 157 r2935 545de2f
Encoding settings                        : cabac=1 / ref=5 / deblock=1:0:0 / analyse=0x3:0x133 / me=umh / subme=7 / psy=1 / psy_rd=1.00:0.00 / mixed_ref=1 / me_range=16 / chroma_me=1 / trellis=1 / 8x8dct=1 / cqm=0 / deadzone=21,11 / fast_pskip=0 / chroma_qp_offset=-2 / threads=25 / lookahead_threads=4 / sliced_threads=0 / nr=0 / decimate=1 / interlaced=0 / bluray_compat=0 / constrained_intra=0 / bframes=3 / b_pyramid=2 / b_adapt=1 / b_bias=0 / direct=1 / weightb=1 / open_gop=0 / weightp=2 / keyint=250 / keyint_min=23 / scenecut=40 / intra_refresh=0 / rc_lookahead=40 / rc=2pass / mbtree=1 / bitrate=8867 / ratetol=1.0 / qcomp=0.60 / qpmin=0 / qpmax=69 / qpstep=4 / cplxblur=20.0 / qblur=0.5 / ip_ratio=1.40 / aq=1:1.00
Language                                 : English
Default                                  : Yes
Forced                                   : No

Audio #1
ID                                       : 2
Format                                   : AC-3
Format/Info                              : Audio Coding 3
Commercial name                          : Dolby Digital
Codec ID                                 : A_AC3
Duration                                 : 2 h 0 min
Bit rate mode                            : Constant
Bit rate                                 : 320 kb/s
Channel(s)                               : 2 channels
Channel layout                           : L R
Sampling rate                            : 44.1 kHz
Frame rate                               : 28.711 FPS (1536 SPF)
Compression mode                         : Lossy
Delay relative to video                  : 2 s 0 ms
Stream size                              : 276 MiB (3%)
Title                                    : Türkçe -  Filmbol.org
Language                                 : Turkish
Service kind                             : Complete Main
Default                                  : Yes
Forced                                   : No

Audio #2
ID                                       : 3
Format                                   : DTS
Format/Info                              : Digital Theater Systems
Codec ID                                 : A_DTS
Duration                                 : 2 h 0 min
Bit rate mode                            : Constant
Bit rate                                 : 1 509 kb/s
Channel(s)                               : 6 channels
Channel layout                           : C L R Ls Rs LFE
Sampling rate                            : 48.0 kHz
Frame rate                               : 93.750 FPS (512 SPF)
Bit depth                                : 24 bits
Compression mode                         : Lossy
Stream size                              : 1.27 GiB (14%)
Title                                    : Orijinal Dil - Filmbol.org
Language                                 : English
Default                                  : No
Forced                                   : No

Text
ID                                       : 4
Format                                   : UTF-8
Codec ID                                 : S_TEXT/UTF8
Codec ID/Info                            : UTF-8 Plain Text
Duration                                 : 1 h 59 min
Bit rate                                 : 67 b/s
Count of elements                        : 1646
Stream size                              : 58.9 KiB (0%)
Title                                    : Türkçe -  Filmbol.org
Language                                 : Turkish
Default                                  : No
Forced                                   : No

Film Detayları


 Çılgın Zengin Asyalılar

 Çılgın Zengin Asyalılar

 Çılgın Zengin Asyalılar


Film Fragmanı


Film Detayları



Zip Şifresi: filmbol.org Aşağıdaki butona tıklayarak kopyalabilirsiniz.

Mega linkiniz:








Bunun için üzgünüz ancak, bu linke sadece premium üyeler erişebilir.

Filmbol Cloud





WWW
Şuan Offine!
Şuan Offine!
AraSh Yeni Üye
*
Üye
  • Konular0
  • Mesajlar5
  • Rep puanı 0
Paylaşım için teşekkürler


Hızlı Menü: