⤤ Premium'a Yükselt
Filmbol Forum Film İndir BRRip XviD v Çılgın Zengin Asyalılar (Crazy Rich Asians) - 2018 - TR - BRRip XviD | tt3104988

Filmbol TV kullanıma açıldı. Bu adresten giriş yapabilirsin: Giriş





Çılgın Zengin Asyalılar (Crazy Rich Asians) - 2018 - TR - BRRip XviD | tt3104988
BroserBros
Çılgın Zengin Asyalılar (Crazy Rich Asians) - 2018 - TR - BRRip XviD | tt3104988
1
412
  • Derecelendirme: 0/5 - 0 oy
  • 1
  • 2
  • 3
  • 4
  • 5
Konuyu Okuyanlar:2 Ziyaretçi
Şuan Online!
Filmin Yayınlanma Tarihi: 2018 
WWW
Rapor Et!
Şuan Online!
BroserBros Kurucu Admin
*******
Admin



 Çılgın Zengin Asyalılar



New Yorklu Rachel Chu, uzun zamandır Nick Young ile birliktedir. Rachel, Nick’in en yakın arkadaşının düğününde sevgilisine eşlik etmek için Singapur’a gider. Genç kadın Asya’ya ilk defa gidecek olmaktan oldukça heyecanlıdır fakat bir yandan da büyük bir stres altındadır. Singapur’da Nick’in ailesi ile tanışacak olmaktan endişe duyan Rachel, bu sırada sevgilisi ile ilgili bilmediği şeyler öğrenir. Nick, ülkenin en zengin ailelerinden birine sahiptir ve o ülkedeki gözde bekarlardan biridir. Rachel, Singapur’a ayak bastığı andan itibaren tüm gözler ona çevrilir. Genç kadının çevresi bir anda onu kıskanan ve Nick’ten ayırmayı planlayan insanlarla dolar.

Çılgın Zengin Asyalılar (2018) (Crazy Rich Asians) | tt3104988 Filmi Imdb'den 150,000 kişi tarafından oylandı ve 6,9 puan aldı. Bu film için editör puanı %67 olarak belirlendi. İyi Seyirler!

Teknik Detaylar

Kod :
General
Unique ID                                : 75948132868374544465395114212620432504 (0x3923140D82A0CA5C0DC274416796F478)
Complete name                            : /home/BroserBros/Desktop/2/Çılgın.Zengin.Asyalılar.2018.BRRip.XviD.TR.Filmbol.avi
Format                                   : Matroska
Format version                           : Version 4
File size                                : 1.41 GiB
Duration                                 : 2 h 0 min
Overall bit rate                         : 1 679 kb/s
Movie name                               : Çılgın Zengin Asyalılar - Crazy Rich Asians - 2018 | Filmbol.org
Encoded date                             : UTC 2021-06-04 14:35:55
Writing application                      : mkvmerge v53.0.0 ('Fool's Gold') 64-bit
Writing library                          : libebml v1.4.1 + libmatroska v1.6.2
FileExtension_Invalid                    : mkv mk3d mka mks

Video
ID                                       : 1
Format                                   : MPEG-4 Visual
Format profile                           : Advanced [email protected]
Format settings                          : BVOP2 / Custom Matrix
Format settings, BVOP                    : 2
Format settings, QPel                    : No
Format settings, GMC                     : No warppoints
Format settings, Matrix                  : Custom
Muxing mode                              : Packed bitstream
Codec ID                                 : V_MS/VFW/FOURCC / XVID
Codec ID/Hint                            : XviD
Duration                                 : 2 h 0 min
Bit rate                                 : 1 549 kb/s
Width                                    : 720 pixels
Height                                   : 304 pixels
Display aspect ratio                     : 2.35:1
Frame rate mode                          : Constant
Frame rate                               : 23.976 (24000/1001) FPS
Color space                              : YUV
Chroma subsampling                       : 4:2:0
Bit depth                                : 8 bits
Scan type                                : Progressive
Compression mode                         : Lossy
Bits/(Pixel*Frame)                       : 0.295
Stream size                              : 1.31 GiB (92%)
Title                                    : Çılgın Zengin Asyalılar - Crazy Rich Asians - 2018 | Filmbol.org
Writing library                          : XviD 1.2.1 (UTC 2008-12-04)
Default                                  : Yes
Forced                                   : No

Audio
ID                                       : 2
Format                                   : MPEG Audio
Format version                           : Version 1
Format profile                           : Layer 3
Format settings                          : Joint stereo / MS Stereo
Codec ID                                 : A_MPEG/L3
Codec ID/Hint                            : MP3
Duration                                 : 2 h 0 min
Bit rate mode                            : Constant
Bit rate                                 : 128 kb/s
Channel(s)                               : 2 channels
Sampling rate                            : 48.0 kHz
Frame rate                               : 41.667 FPS (1152 SPF)
Compression mode                         : Lossy
Stream size                              : 110 MiB (8%)
Title                                    : Çılgın Zengin Asyalılar - Crazy Rich Asians - 2018 | Filmbol.org
Writing library                          : LAME3.98.4
Default                                  : Yes
Forced                                   : No

Film Detayları


 Çılgın Zengin Asyalılar

 Çılgın Zengin Asyalılar

 Çılgın Zengin Asyalılar


Film Fragmanı


Film İndir


Rar Şifresi: filmbol.org



Uptobox ile indir

1Fichier ile indir

1Fichier'den İndiremiyor musun? Tıklayın!












Şuan Online!
Rapor Et!
Şuan Online!
BroserBros Kurucu Admin
*******
Admin
05.06.2021 Yönetici Notu:

Kırık linkler kontrol edildi, kaldırıldı ve yenilendi. Tüm linkler tamamen çalışır durumda.


Hızlı Menü: