Filmbol Forum Film İndir FHD - FULL HD v Açlık Oyunları: Ateşi Yakalamak (The Hunger Games: Catching Fire) - 2013 - TR+ORG - FHD - x264 | tt1951264

Premium Üyelik Al

Bildirimi Kapat
Mega linklerinin şikayet edilmemesi için global erişime kapatıp sadece yorum yapanlara açıyoruz. Bu linkleri gizleme işlemini mecburen yapıyoruz ve yorum yapmanızın siteye değil size faydası vardır. Teşekkürler yazmayı çok görüp, Random/Spam/Anlamsız mesajlar atarak forumu kirletip Mega linklerini açmaya çalışan kullanıcılara süresiz ban atacağız.


Açlık Oyunları: Ateşi Yakalamak (The Hunger Games: Catching Fire) - 2013 - TR+ORG - FHD - x264 | tt1951264
TheSteeL
Açlık Oyunları: Ateşi Yakalamak (The Hunger Games: Catching Fire) - 2013 - TR+ORG - FHD - x264 | tt1951264
0
17
  • Derecelendirme: 0/5 - 0 oy
  • 1
  • 2
  • 3
  • 4
  • 5
Konuyu Okuyanlar:1 Ziyaretçi
Şuan Online!
Filmin Yayınlanma Tarihi: 2013 
WWW
Şuan Online!
TheSteeL Süper Moderatör
*****
Süper Moderatör



 Açlık Oyunları: Ateşi Yakalamak



Katniss ve Peeta açlık oyunlarından galibiyet ile ayrılmıştır. Artık onlar için zafer zamanıdır. Geriye kalan hayatlarını zenginlikle ve gıda sorunu olmadan yaşayabileceklerdir. Fakat Katniss her ne kadar oyunu kazansa da, hiç tanımadığı, ona hiç zarar vermeyen insanları öldürdüğü için hiç mutlu değildir. Kurallar gereği kazanan bu iki kişi Panem ülkesinin tüm eyaletlerini ziyaret ederek burada konuşma gerçekleştirmelidir. Bunu yapmayı istemese de Katniss biraz düşündükten sonra bu durumu avantaja çevirebileceğini anlayıp bir isyan ateşi yakar...

Açlık Oyunları: Ateşi Yakalamak (2013) (The Hunger Games: Catching Fire) | tt1951264 Filmi Imdb'den 622500 kişi tarafından oylandı ve 7,5 puan aldı. Bu film için editör puanı %86 olarak belirlendi. İyi Seyirler!

Teknik Detaylar

Kod :
General
Unique ID                                : 266907824952430964433658307341904025308 (0xC8CC93C670D421403C61E0B1C3DC96DC)
Complete name                            : /home/TheSteel/Desktop/1/Açlık.Oyunları.Ateşi.Yakalamak.2013.FHD.BluRay.x264.TR.ENG.Filmbol.mkv
Format                                   : Matroska
Format version                           : Version 4
File size                                : 14.8 GiB
Duration                                 : 2 h 26 min
Overall bit rate mode                    : Variable
Overall bit rate                         : 14.5 Mb/s
Encoded date                             : UTC 2021-05-25 09:12:00
Writing application                      : mkvmerge v31.0.0 ('Dolores In A Shoestand') 64-bit
Writing library                          : libebml v1.3.6 + libmatroska v1.4.9

Video
ID                                       : 1
Format                                   : AVC
Format/Info                              : Advanced Video Codec
Format profile                           : [email protected]
Format settings                          : CABAC / 4 Ref Frames
Format settings, CABAC                   : Yes
Format settings, Reference frames        : 4 frames
Codec ID                                 : V_MPEG4/ISO/AVC
Duration                                 : 2 h 26 min
Bit rate                                 : 8 998 kb/s
Width                                    : 1 920 pixels
Height                                   : 1 080 pixels
Display aspect ratio                     : 16:9
Frame rate mode                          : Constant
Frame rate                               : 23.976 (24000/1001) FPS
Color space                              : YUV
Chroma subsampling                       : 4:2:0
Bit depth                                : 8 bits
Scan type                                : Progressive
Bits/(Pixel*Frame)                       : 0.181
Stream size                              : 9.19 GiB (62%)
Title                                    : FHD - Filmbol.org
Language                                 : English
Default                                  : Yes
Forced                                   : No

Audio #1
ID                                       : 2
Format                                   : AC-3
Format/Info                              : Audio Coding 3
Commercial name                          : Dolby Digital
Codec ID                                 : A_AC3
Duration                                 : 2 h 26 min
Bit rate mode                            : Constant
Bit rate                                 : 448 kb/s
Channel(s)                               : 6 channels
Channel layout                           : L R C LFE Ls Rs
Sampling rate                            : 48.0 kHz
Frame rate                               : 31.250 FPS (1536 SPF)
Compression mode                         : Lossy
Delay relative to video                  : 24 ms
Stream size                              : 469 MiB (3%)
Title                                    : Türkçe - Filmbol.org
Language                                 : Turkish
Service kind                             : Complete Main
Default                                  : Yes
Forced                                   : No

Audio #2
ID                                       : 3
Format                                   : DTS XLL
Format/Info                              : Digital Theater Systems
Commercial name                          : DTS-HD Master Audio
Codec ID                                 : A_DTS
Duration                                 : 2 h 26 min
Bit rate mode                            : Variable
Bit rate                                 : 5 019 kb/s
Channel(s)                               : 8 channels
Channel layout                           : C L R LFE Lb Rb Lss Rss
Sampling rate                            : 48.0 kHz
Frame rate                               : 93.750 FPS (512 SPF)
Bit depth                                : 24 bits
Compression mode                         : Lossless
Stream size                              : 5.13 GiB (35%)
Title                                    : Orjinal Dil - Filmbol.org
Language                                 : English
Default                                  : No
Forced                                   : No

Text
ID                                       : 4
Format                                   : UTF-8
Codec ID                                 : S_TEXT/UTF8
Codec ID/Info                            : UTF-8 Plain Text
Duration                                 : 2 h 14 min
Bit rate                                 : 51 b/s
Count of elements                        : 1451
Stream size                              : 51.4 KiB (0%)
Title                                    : Türkçe - Filmbol.org
Language                                 : Turkish
Default                                  : No
Forced                                   : No

Film Detayları


 Açlık Oyunları: Ateşi Yakalamak

 Açlık Oyunları: Ateşi Yakalamak

 Açlık Oyunları: Ateşi Yakalamak


Film Fragmanı


Film Detayları

Mega linki şuan da gizli. Kullanıma açmak için konuya yorum yapın ve ardından sayfayı yenileyin.

Mega


Bunun için üzgünüz ancak, bu linke sadece premium üyeler erişebilir.

Filmbol Cloud







Hızlı Menü: