Filmbol Forum Film İndir BRRip XviD v Açlık Oyunları: Ateşi Yakalamak (The Hunger Games: Catching Fire) - 2013 - TR - BRRip XviD | tt1951264

Premium Üyelik Al

Bildirimi Kapat
Mega linklerinin şikayet edilmemesi için global erişime kapatıp sadece yorum yapanlara açıyoruz. Bu linkleri gizleme işlemini mecburen yapıyoruz ve yorum yapmanızın siteye değil size faydası vardır. Teşekkürler yazmayı çok görüp, Random/Spam/Anlamsız mesajlar atarak forumu kirletip Mega linklerini açmaya çalışan kullanıcılara süresiz ban atacağız.


Açlık Oyunları: Ateşi Yakalamak (The Hunger Games: Catching Fire) - 2013 - TR - BRRip XviD | tt1951264
TheSteeL
Açlık Oyunları: Ateşi Yakalamak (The Hunger Games: Catching Fire) - 2013 - TR - BRRip XviD | tt1951264
0
23
  • Derecelendirme: 0/5 - 0 oy
  • 1
  • 2
  • 3
  • 4
  • 5
Konuyu Okuyanlar:1 Ziyaretçi
Şuan Online!
Filmin Yayınlanma Tarihi: 2013 
WWW
Şuan Online!
TheSteeL Süper Moderatör
*****
Süper Moderatör



 Açlık Oyunları: Ateşi Yakalamak



Katniss ve Peeta açlık oyunlarından galibiyet ile ayrılmıştır. Artık onlar için zafer zamanıdır. Geriye kalan hayatlarını zenginlikle ve gıda sorunu olmadan yaşayabileceklerdir. Fakat Katniss her ne kadar oyunu kazansa da, hiç tanımadığı, ona hiç zarar vermeyen insanları öldürdüğü için hiç mutlu değildir. Kurallar gereği kazanan bu iki kişi Panem ülkesinin tüm eyaletlerini ziyaret ederek burada konuşma gerçekleştirmelidir. Bunu yapmayı istemese de Katniss biraz düşündükten sonra bu durumu avantaja çevirebileceğini anlayıp bir isyan ateşi yakar...

Açlık Oyunları: Ateşi Yakalamak (2013) (The Hunger Games: Catching Fire) | tt1951264 Filmi Imdb'den 622500 kişi tarafından oylandı ve 7,5 puan aldı. Bu film için editör puanı %86 olarak belirlendi. İyi Seyirler!

Teknik Detaylar

Kod :
General
Complete name                            : /home/TheSteel/Desktop/asd/Aclik.Oyunlari.Atesi.Yakalamak.2013.TR.BDRip.XviD.avi
Format                                   : AVI
Format/Info                              : Audio Video Interleave
File size                                : 1.37 GiB
Duration                                 : 2 h 26 min
Overall bit rate                         : 1 346 kb/s

Video
ID                                       : 0
Format                                   : MPEG-4 Visual
Format profile                           : Advanced [email protected]
Format settings                          : BVOP2
Format settings, BVOP                    : 2
Format settings, QPel                    : No
Format settings, GMC                     : No warppoints
Format settings, Matrix                  : Default (MPEG)
Codec ID                                 : XVID
Codec ID/Hint                            : XviD
Duration                                 : 2 h 26 min
Bit rate                                 : 1 206 kb/s
Width                                    : 640 pixels
Height                                   : 272 pixels
Display aspect ratio                     : 2.35:1
Frame rate                               : 23.976 (24000/1001) FPS
Color space                              : YUV
Chroma subsampling                       : 4:2:0
Bit depth                                : 8 bits
Scan type                                : Progressive
Compression mode                         : Lossy
Bits/(Pixel*Frame)                       : 0.289
Stream size                              : 1.23 GiB (90%)
Writing library                          : XviD 1.2.1 (UTC 2008-12-04)

Audio
ID                                       : 1
Format                                   : MPEG Audio
Format version                           : Version 1
Format profile                           : Layer 3
Codec ID                                 : 55
Codec ID/Hint                            : MP3
Duration                                 : 2 h 26 min
Bit rate mode                            : Constant
Bit rate                                 : 128 kb/s
Channel(s)                               : 2 channels
Sampling rate                            : 44.1 kHz
Compression mode                         : Lossy
Stream size                              : 134 MiB (10%)
Alignment                                : Aligned on interleaves
Interleave, duration                     : 26  ms (0.63 video frame)
Interleave, preload duration             : 182  ms
Title                                    : aclik

Film Detayları


 Açlık Oyunları: Ateşi Yakalamak

 Açlık Oyunları: Ateşi Yakalamak

 Açlık Oyunları: Ateşi Yakalamak


Film Fragmanı


Film Detayları


Uptobox ile indir

1Fichier ile indir

1Fichier'den İndiremiyor musun? Tıklayın!


Mega linki şuan da gizli. Kullanıma açmak için konuya yorum yapın ve ardından sayfayı yenileyin.

Mega


Bunun için üzgünüz ancak, bu linke sadece premium üyeler erişebilir.

Filmbol Cloud







Hızlı Menü: