Filmbol Forum Film İndir BRRip XviD v Arınma Gecesi: Seçim Yılı (The Purge: Election Year) - 2016 - TR - BRRip XviD | tt4094724
Mega linklerinin şikayet edilmemesi için global erişime kapatıp sadece yorum yapanlara açıyoruz. Bu linkleri gizleme işlemini mecburen yapıyoruz ve yorum yapmanızın siteye değil size faydası vardır. Teşekürler yazmayı çok görüp, Random/Spam mesajlar atarak Mega linklerini açmaya çalışan kullanıcılara önce süresiz ban, devam ederse IP ban atacağız.
Filmbol'da moderatör olmak ister misiniz? Bizimle iletişime geçmek için tıklayın!
Arınma Gecesi: Seçim Yılı (The Purge: Election Year) - 2016 - TR - BRRip XviD | tt4094724
BroserBros
Arınma Gecesi: Seçim Yılı (The Purge: Election Year) - 2016 - TR - BRRip XviD | tt4094724
3
1815
  • Derecelendirme: 0/5 - 0 oy
  • 1
  • 2
  • 3
  • 4
  • 5
Konuyu Okuyanlar:1 Ziyaretçi
Şuan Online!
Filmin Yayınlanma Tarihi: 2016 
WWW
Şuan Online!
BroserBros Kurucu Admin
*******
Admin



 Arınma Gecesi: Seçim Yılı



Arınma Gecesi 3, yönetmenliğini ve senaristliğini James DeMonaco’nun üstlendiği serinn üçüncü filmi. Tüm dünyada 200 milyon dolar gişe hasılatı yaparak beklenmedik bir başarı elde eden serinin yeni filminde, Amerika’nın Yeni Kurucuları tarafından her yıl hayata geçirilen 12 saatlik anarşinin dehşet verici yeni bölümü gözler önüne seriliyor.
Yeni bölümde seçimlerde başı çeken bir senatörün hikayesini izliyoruz. Arınma Gecesi’nin kaldırılması için kampanya yürüten senatör henüz amacına ulaşamadan Arınma Gecesi gelip çatıyor. 24 saatlik özgürlüklerine veda etmek istemeyen suçlular da bu kez senatörü hedef alıyor.

Arınma Gecesi: Seçim Yılı (2016) (The Purge: Election Year) | tt4094724 Filmi Imdb'den 90,000 kişi tarafından oylandı ve 6,0 puan aldı. Bu film için editör puanı %71 olarak belirlendi. İyi Seyirler!

Teknik Detaylar

Kod :
General
Complete name                            : /home/BroserBros/Desktop/8/Arınma.Gecesi.Seçim.Yılı.2016.BRRip.XviD.TR.Filmbol.avi
Format                                   : AVI
Format/Info                              : Audio Video Interleave
File size                                : 1.15 GiB
Duration                                 : 1 h 48 min
Overall bit rate                         : 1 512 kb/s

Video
ID                                       : 0
Format                                   : MPEG-4 Visual
Format profile                           : Advanced [email protected]
Format settings                          : BVOP2
Format settings, BVOP                    : 2
Format settings, QPel                    : No
Format settings, GMC                     : No warppoints
Format settings, Matrix                  : Default (H.263)
Codec ID                                 : XVID
Codec ID/Hint                            : XviD
Duration                                 : 1 h 48 min
Bit rate                                 : 1 371 kb/s
Width                                    : 720 pixels
Height                                   : 304 pixels
Display aspect ratio                     : 2.35:1
Frame rate                               : 23.976 (23976/1000) FPS
Color space                              : YUV
Chroma subsampling                       : 4:2:0
Bit depth                                : 8 bits
Scan type                                : Progressive
Compression mode                         : Lossy
Bits/(Pixel*Frame)                       : 0.261
Stream size                              : 1.04 GiB (91%)
Writing library                          : XviD 66

Audio
ID                                       : 1
Format                                   : MPEG Audio
Format version                           : Version 1
Format profile                           : Layer 3
Format settings                          : Joint stereo
Codec ID                                 : 55
Codec ID/Hint                            : MP3
Duration                                 : 1 h 48 min
Bit rate mode                            : Constant
Bit rate                                 : 128 kb/s
Channel(s)                               : 2 channels
Sampling rate                            : 48.0 kHz
Frame rate                               : 41.667 FPS (1152 SPF)
Compression mode                         : Lossy
Stream size                              : 99.6 MiB (8%)
Alignment                                : Aligned on interleaves
Interleave, duration                     : 24  ms (0.58 video frame)

Film Detayları


 Arınma Gecesi: Seçim Yılı

 Arınma Gecesi: Seçim Yılı

 Arınma Gecesi: Seçim Yılı


Film Fragmanı


Film Detayları


Uptobox ile indir

1Fichier ile indir

1Fichier'den İndiremiyor musun? Tıklayın!


Mega linki şuan da gizli. Kullanıma açmak için konuya yorum yapın ve ardından sayfayı yenileyin.

Mega


Bunun için üzgünüz ancak, bu linke sadece premium üyeler erişebilir.

Filmbol Cloud





Şuan Online!
Şuan Online!
Furkan61 Süper Üye
***
Super Üye

  • Konular0
  • Mesajlar227
  • Rep puanı 4
güzel
Şuan Online!
Şuan Online!
BroserBros Kurucu Admin
*******
Admin

16.03.2021 Yönetici Notu:

Kırık linkler kontrol edildi, kaldırıldı ve yenilendi. Tüm linkler tamamen çalışır durumda. @Furkan61
Şuan Online!
Şuan Online!
Furkan61 Süper Üye
***
Super Üye

  • Konular0
  • Mesajlar227
  • Rep puanı 4
Teşekkürler BroserBros Big Grin


Hızlı Menü: