Filmbol Forum Film İndir 720P v Arınma Gecesi: Seçim Yılı (The Purge: Election Year) - 2016 - TR+ORG - 720P | tt4094724
Mega linklerinin şikayet edilmemesi için global erişime kapatıp sadece yorum yapanlara açıyoruz. Bu linkleri gizleme işlemini mecburen yapıyoruz ve yorum yapmanızın siteye değil size faydası vardır. Teşekürler yazmayı çok görüp, Random/Spam mesajlar atarak Mega linklerini açmaya çalışan kullanıcılara önce süresiz ban, devam ederse IP ban atacağız.
Filmbol'da moderatör olmak ister misiniz? Bizimle iletişime geçmek için tıklayın!
Arınma Gecesi: Seçim Yılı (The Purge: Election Year) - 2016 - TR+ORG - 720P | tt4094724
BroserBros
Arınma Gecesi: Seçim Yılı (The Purge: Election Year) - 2016 - TR+ORG - 720P | tt4094724
2
2674
  • Derecelendirme: 0/5 - 0 oy
  • 1
  • 2
  • 3
  • 4
  • 5
Konuyu Okuyanlar:2 Ziyaretçi
Şuan Online!
Filmin Yayınlanma Tarihi: 2016 
WWW
Şuan Online!
BroserBros Kurucu Admin
*******
Admin



 Arınma Gecesi: Seçim Yılı



Arınma Gecesi 3, yönetmenliğini ve senaristliğini James DeMonaco’nun üstlendiği serinn üçüncü filmi. Tüm dünyada 200 milyon dolar gişe hasılatı yaparak beklenmedik bir başarı elde eden serinin yeni filminde, Amerika’nın Yeni Kurucuları tarafından her yıl hayata geçirilen 12 saatlik anarşinin dehşet verici yeni bölümü gözler önüne seriliyor.
Yeni bölümde seçimlerde başı çeken bir senatörün hikayesini izliyoruz. Arınma Gecesi’nin kaldırılması için kampanya yürüten senatör henüz amacına ulaşamadan Arınma Gecesi gelip çatıyor. 24 saatlik özgürlüklerine veda etmek istemeyen suçlular da bu kez senatörü hedef alıyor.

Arınma Gecesi: Seçim Yılı (2016) (The Purge: Election Year) | tt4094724 Filmi Imdb'den 90,000 kişi tarafından oylandı ve 6,0 puan aldı. Bu film için editör puanı %71 olarak belirlendi. İyi Seyirler!

Teknik Detaylar

Kod :
General
Unique ID                                : 62500612622977984521517825446170511934 (0x2F052E1D9C2E6C48270A37F7712ACA3E)
Complete name                            : /home/BroserBros/Desktop/8/Arınma.Gecesi.Seçim.Yılı.2016.720p.BluRay.x264.TR.ENG.Filmbol.mkv
Format                                   : Matroska
Format version                           : Version 4
File size                                : 978 MiB
Duration                                 : 1 h 48 min
Overall bit rate                         : 1 257 kb/s
Movie name                               : Arınma Gecesi: Seçim Yılı - The Purge: Election Year - 2016 | Filmbol.org
Encoded date                             : UTC 2021-03-14 13:47:39
Writing application                      : mkvmerge v53.0.0 ('Fool's Gold') 64-bit
Writing library                          : libebml v1.4.1 + libmatroska v1.6.2

Video
ID                                       : 1
Format                                   : AVC
Format/Info                              : Advanced Video Codec
Format profile                           : [email protected]
Format settings                          : CABAC / 4 Ref Frames
Format settings, CABAC                   : Yes
Format settings, Reference frames        : 4 frames
Codec ID                                 : V_MPEG4/ISO/AVC
Duration                                 : 1 h 48 min
Bit rate                                 : 900 kb/s
Width                                    : 1 280 pixels
Height                                   : 534 pixels
Display aspect ratio                     : 2.40:1
Original display aspect ratio            : 2.40:1
Frame rate mode                          : Constant
Frame rate                               : 23.976 (24000/1001) FPS
Color space                              : YUV
Chroma subsampling                       : 4:2:0
Bit depth                                : 8 bits
Scan type                                : Progressive
Bits/(Pixel*Frame)                       : 0.055
Stream size                              : 700 MiB (72%)
Title                                    : 720P - Filmbol.org
Writing library                          : x264 core 148
Encoding settings                        : cabac=1 / ref=4 / deblock=1:-1:-1 / analyse=0x3:0x133 / me=umh / subme=9 / psy=1 / psy_rd=1.00:0.15 / mixed_ref=1 / me_range=24 / chroma_me=1 / trellis=2 / 8x8dct=1 / cqm=0 / deadzone=21,11 / fast_pskip=0 / chroma_qp_offset=-3 / threads=12 / lookahead_threads=1 / sliced_threads=0 / nr=0 / decimate=1 / interlaced=0 / bluray_compat=0 / constrained_intra=0 / bframes=3 / b_pyramid=2 / b_adapt=2 / b_bias=0 / direct=3 / weightb=1 / open_gop=0 / weightp=2 / keyint=250 / keyint_min=23 / scenecut=40 / intra_refresh=0 / rc_lookahead=60 / rc=2pass / mbtree=1 / bitrate=900 / ratetol=1.0 / qcomp=0.60 / qpmin=0 / qpmax=69 / qpstep=4 / cplxblur=20.0 / qblur=0.5 / vbv_maxrate=31250 / vbv_bufsize=31250 / nal_hrd=none / filler=0 / ip_ratio=1.40 / aq=1:1.00
Default                                  : Yes
Forced                                   : No

Audio #1
ID                                       : 2
Format                                   : AC-3
Format/Info                              : Audio Coding 3
Commercial name                          : Dolby Digital
Codec ID                                 : A_AC3
Duration                                 : 1 h 48 min
Bit rate mode                            : Constant
Bit rate                                 : 224 kb/s
Channel(s)                               : 2 channels
Channel layout                           : L R
Sampling rate                            : 48.0 kHz
Frame rate                               : 31.250 FPS (1536 SPF)
Compression mode                         : Lossy
Delay relative to video                  : -43 ms
Stream size                              : 174 MiB (18%)
Title                                    : Türkçe - Filmbol.org
Language                                 : Turkish
Service kind                             : Complete Main
Default                                  : Yes
Forced                                   : Yes

Audio #2
ID                                       : 3
Format                                   : AAC LC
Format/Info                              : Advanced Audio Codec Low Complexity
Codec ID                                 : A_AAC-2
Duration                                 : 1 h 48 min
Bit rate                                 : 132 kb/s
Channel(s)                               : 2 channels
Channel layout                           : L R
Sampling rate                            : 48.0 kHz
Frame rate                               : 46.875 FPS (1024 SPF)
Compression mode                         : Lossy
Delay relative to video                  : -43 ms
Stream size                              : 102 MiB (10%)
Title                                    : Orjinal Dil - Filmbol.org
Default                                  : No
Forced                                   : No

Text
ID                                       : 4
Format                                   : UTF-8
Codec ID                                 : S_TEXT/UTF8
Codec ID/Info                            : UTF-8 Plain Text
Duration                                 : 1 h 42 min
Bit rate                                 : 57 b/s
Count of elements                        : 1017
Stream size                              : 43.1 KiB (0%)
Title                                    : Türkçe - Filmbol.org
Language                                 : Turkish
Default                                  : Yes
Forced                                   : No

Film Detayları


 Arınma Gecesi: Seçim Yılı

 Arınma Gecesi: Seçim Yılı

 Arınma Gecesi: Seçim Yılı


Film Fragmanı


Film Detayları

Uptobox ile indir

1Fichier ile indir

1Fichier'den İndiremiyor musun? Tıklayın!


Mega linki şuan da gizli. Kullanıma açmak için konuya yorum yapın ve ardından sayfayı yenileyin.

Mega


Bunun için üzgünüz ancak, bu linke sadece premium üyeler erişebilir.

Filmbol Cloud





Şuan Offine!
Şuan Offine!
Mcht Yeni Üye
*
Üye

  • Konular0
  • Mesajlar1
  • Rep puanı 0
Smile MOTHİŞ
Şuan Online!
Şuan Online!
BroserBros Kurucu Admin
*******
Admin

16.03.2021 Yönetici Notu:

Kırık linkler kontrol edildi, kaldırıldı ve yenilendi. Tüm linkler tamamen çalışır durumda.


Konu ile Alakalı Benzer Konular
Konular Yazar Yorumlar Okunma Son Yorum
Filmin Yayınlanma Tarihi: 2017
Örümcek-Adam: Eve Dönüş (Spider-Man: Homecoming) - 2017 - TR+ORG - 720P | tt2250912 BroserBros 11 1,415 35 dakika önce
Son Yorum: denizyesilova00
Filmin Yayınlanma Tarihi: 2015
Karınca Adam (Ant-Man) - 2015 - TR+ORG - 720P | tt0478970 BroserBros 4 1,929 40 dakika önce
Son Yorum: denizyesilova00
Filmin Yayınlanma Tarihi: 2016
Kaptan Amerika: Kahramanların Savaşı (Captain America: Civil War) - 2016 - TR+ORG - 720P | tt3498820 BroserBros 5 5,327 41 dakika önce
Son Yorum: denizyesilova00
Filmin Yayınlanma Tarihi: 2015
Yenilmezler: Ultron Çağı (Avengers: Age of Ultron) - 2015 - TR+ORG - 720P | tt2395427 BroserBros 8 5,989 2 saat önce
Son Yorum: denizyesilova00
Filmin Yayınlanma Tarihi: 2017
Galaksinin Koruyucuları 2 (Guardians of the Galaxy Vol. 2) - 2017 - TR+ORG - 720P | tt3896198 BroserBros 3 453 2 saat önce
Son Yorum: denizyesilova00

Hızlı Menü: