Filmbol Forum Film İndir FHD - FULL HD v Kung Fu Panda (Kung Fu Panda) - 2008 - TR+ORG - FHD - x264 | tt0441773

Premium Üyelik Al

Bildirimi Kapat
Mega linklerinin şikayet edilmemesi için global erişime kapatıp sadece yorum yapanlara açıyoruz. Bu linkleri gizleme işlemini mecburen yapıyoruz ve yorum yapmanızın siteye değil size faydası vardır. Teşekkürler yazmayı çok görüp, Random/Spam/Anlamsız mesajlar atarak forumu kirletip Mega linklerini açmaya çalışan kullanıcılara süresiz ban atacağız.


Kung Fu Panda (Kung Fu Panda) - 2008 - TR+ORG - FHD - x264 | tt0441773
TheSteeL
Kung Fu Panda (Kung Fu Panda) - 2008 - TR+ORG - FHD - x264 | tt0441773
0
74
  • Derecelendirme: 0/5 - 0 oy
  • 1
  • 2
  • 3
  • 4
  • 5
Konuyu Okuyanlar:1 Ziyaretçi
Şuan Online!
Filmin Yayınlanma Tarihi: 2008 
WWW
Şuan Online!
TheSteeL Süper Moderatör
*****
Süper Moderatör



 Kung Fu Panda



Baş kahramanımız sevimli, hafif şişko ve iri bir yapılı bir vücuda sahiptir. Panda zamanla kendinin Kungfu öğrenmesi gerektiğine inanır ve arkadaşları onun bu şişko hali ile hiçbir şey yapmayacağını düşünür. Bu Panda'nın şevkini kırsa da, onun azmi ve yetenekli hocası ile yapamayacağı hiçbir şey olmayacağını anlar...

Kung Fu Panda (2008) (Kung Fu Panda) | tt0441773 Filmi Imdb'den 425500 kişi tarafından oylandı ve 7,6 puan aldı. Bu film için editör puanı %80 olarak belirlendi. İyi Seyirler!

Teknik Detaylar

Kod :
General
Unique ID                                : 159316804897401177586671268083594292162 (0x77DB4CEEDA3F81663883E46B2839EBC2)
Complete name                            : /home/TheSteel/Desktop/2/Kung.Fu.Panda.2008.FHD.Bluray.x264.Filmbol.mkv
Format                                   : Matroska
Format version                           : Version 4
File size                                : 3.72 GiB
Duration                                 : 1 h 32 min
Overall bit rate                         : 5 781 kb/s
Encoded date                             : UTC 2021-04-18 18:35:44
Writing application                      : mkvmerge v31.0.0 ('Dolores In A Shoestand') 64-bit
Writing library                          : libebml v1.3.6 + libmatroska v1.4.9

Video
ID                                       : 1
Format                                   : AVC
Format/Info                              : Advanced Video Codec
Format profile                           : [email protected]
Format settings                          : CABAC / 5 Ref Frames
Format settings, CABAC                   : Yes
Format settings, Reference frames        : 5 frames
Codec ID                                 : V_MPEG4/ISO/AVC
Duration                                 : 1 h 32 min
Bit rate                                 : 4 500 kb/s
Width                                    : 1 920 pixels
Height                                   : 816 pixels
Display aspect ratio                     : 2.35:1
Frame rate mode                          : Constant
Frame rate                               : 23.976 (24000/1001) FPS
Color space                              : YUV
Chroma subsampling                       : 4:2:0
Bit depth                                : 8 bits
Scan type                                : Progressive
Bits/(Pixel*Frame)                       : 0.120
Stream size                              : 2.90 GiB (78%)
Title                                    : FHD - Filmbol.org
Writing library                          : x264 core 148 r2638 7599210
Encoding settings                        : cabac=1 / ref=5 / deblock=1:-1:-1 / analyse=0x3:0x133 / me=umh / subme=11 / psy=1 / psy_rd=1.00:0.15 / mixed_ref=1 / me_range=32 / chroma_me=1 / trellis=2 / 8x8dct=1 / cqm=0 / deadzone=21,11 / fast_pskip=0 / chroma_qp_offset=-3 / threads=12 / lookahead_threads=1 / sliced_threads=0 / nr=0 / decimate=1 / interlaced=0 / bluray_compat=0 / constrained_intra=0 / bframes=4 / b_pyramid=2 / b_adapt=2 / b_bias=0 / direct=3 / weightb=1 / open_gop=0 / weightp=2 / keyint=240 / keyint_min=23 / scenecut=40 / intra_refresh=0 / rc_lookahead=60 / rc=2pass / mbtree=1 / bitrate=4500 / ratetol=1.0 / qcomp=0.60 / qpmin=0 / qpmax=69 / qpstep=4 / cplxblur=20.0 / qblur=0.5 / ip_ratio=1.40 / aq=1:1.00
Default                                  : Yes
Forced                                   : No

Audio #1
ID                                       : 2
Format                                   : AC-3
Format/Info                              : Audio Coding 3
Commercial name                          : Dolby Digital
Codec ID                                 : A_AC3
Duration                                 : 1 h 32 min
Bit rate mode                            : Constant
Bit rate                                 : 640 kb/s
Channel(s)                               : 6 channels
Channel layout                           : L R C LFE Ls Rs
Sampling rate                            : 48.0 kHz
Frame rate                               : 31.250 FPS (1536 SPF)
Compression mode                         : Lossy
Stream size                              : 422 MiB (11%)
Title                                    : Türkçe - Filmbol.org
Service kind                             : Complete Main
Default                                  : Yes
Forced                                   : No

Audio #2
ID                                       : 3
Format                                   : AC-3
Format/Info                              : Audio Coding 3
Commercial name                          : Dolby Digital
Codec ID                                 : A_AC3
Duration                                 : 1 h 32 min
Bit rate mode                            : Constant
Bit rate                                 : 640 kb/s
Channel(s)                               : 6 channels
Channel layout                           : L R C LFE Ls Rs
Sampling rate                            : 48.0 kHz
Frame rate                               : 31.250 FPS (1536 SPF)
Compression mode                         : Lossy
Stream size                              : 422 MiB (11%)
Title                                    : Orjinal Dil - Filmbol.org
Language                                 : English
Service kind                             : Complete Main
Default                                  : No
Forced                                   : No

Text
ID                                       : 4
Format                                   : UTF-8
Codec ID                                 : S_TEXT/UTF8
Codec ID/Info                            : UTF-8 Plain Text
Duration                                 : 1 h 22 min
Bit rate                                 : 46 b/s
Count of elements                        : 934
Stream size                              : 28.2 KiB (0%)
Title                                    : Türkçe - Filmbol.org
Default                                  : No
Forced                                   : No

Film Detayları


 Kung Fu Panda

 Kung Fu Panda

 Kung Fu Panda


Film Fragmanı


Film Detayları

Bunun için üzgünüz ancak, bu linke sadece premium üyeler erişebilir.

Filmbol Cloud







Hızlı Menü: