Filmbol Forum Film İndir BRRip XviD v Kung Fu Panda (Kung Fu Panda) - 2008 - TR - BRRip XviD | tt0441773

Premium Üyelik Al

Bildirimi Kapat
Mega linklerinin şikayet edilmemesi için global erişime kapatıp sadece yorum yapanlara açıyoruz. Bu linkleri gizleme işlemini mecburen yapıyoruz ve yorum yapmanızın siteye değil size faydası vardır. Teşekkürler yazmayı çok görüp, Random/Spam/Anlamsız mesajlar atarak forumu kirletip Mega linklerini açmaya çalışan kullanıcılara süresiz ban atacağız.


Kung Fu Panda (Kung Fu Panda) - 2008 - TR - BRRip XviD | tt0441773
TheSteeL
Kung Fu Panda (Kung Fu Panda) - 2008 - TR - BRRip XviD | tt0441773
1
88
  • Derecelendirme: 0/5 - 0 oy
  • 1
  • 2
  • 3
  • 4
  • 5
Konuyu Okuyanlar:1 Ziyaretçi
Şuan Online!
Filmin Yayınlanma Tarihi: 2008 
WWW
Şuan Online!
TheSteeL Süper Moderatör
*****
Süper Moderatör



 Kung Fu Panda



Baş kahramanımız sevimli, hafif şişko ve iri bir yapılı bir vücuda sahiptir. Panda zamanla kendinin Kungfu öğrenmesi gerektiğine inanır ve arkadaşları onun bu şişko hali ile hiçbir şey yapmayacağını düşünür. Bu Panda'nın şevkini kırsa da, onun azmi ve yetenekli hocası ile yapamayacağı hiçbir şey olmayacağını anlar...

Kung Fu Panda (2008) (Kung Fu Panda) | tt0441773 Filmi Imdb'den 425500 kişi tarafından oylandı ve 7,6 puan aldı. Bu film için editör puanı %80 olarak belirlendi. İyi Seyirler!

Teknik Detaylar

Kod :
General
Unique ID                                : 209579882544574229383623871984141037495 (0x9DAB9DFDC37C80E45AEBAC05B1C76FB7)
Complete name                            : /home/TheSteel/Desktop/2/Kung.Fu.Panda.2008.BRRip.XViD.TR.Filmbol.avi
Format                                   : Matroska
Format version                           : Version 4
File size                                : 690 MiB
Duration                                 : 1 h 28 min
Overall bit rate                         : 1 091 kb/s
Movie name                               : Kung Fu Panda - 2008 | Filmbol.org
Encoded date                             : UTC 2021-04-18 18:39:39
Writing application                      : mkvmerge v31.0.0 ('Dolores In A Shoestand') 64-bit
Writing library                          : libebml v1.3.6 + libmatroska v1.4.9
FileExtension_Invalid                    : mkv mk3d mka mks

Video
ID                                       : 1
Format                                   : MPEG-4 Visual
Format profile                           : Advanced [email protected]
Format settings                          : BVOP2
Format settings, BVOP                    : 2
Format settings, QPel                    : No
Format settings, GMC                     : No warppoints
Format settings, Matrix                  : Default (H.263)
Muxing mode                              : Packed bitstream
Codec ID                                 : V_MS/VFW/FOURCC / XVID
Codec ID/Hint                            : XviD
Duration                                 : 1 h 28 min
Bit rate                                 : 961 kb/s
Width                                    : 720 pixels
Height                                   : 304 pixels
Display aspect ratio                     : 2.35:1
Frame rate mode                          : Constant
Frame rate                               : 25.000 FPS
Color space                              : YUV
Chroma subsampling                       : 4:2:0
Bit depth                                : 8 bits
Scan type                                : Progressive
Compression mode                         : Lossy
Bits/(Pixel*Frame)                       : 0.176
Stream size                              : 608 MiB (88%)
Title                                    : Kung Fu Panda - 2008 | Filmbol.org
Writing library                          : XviD 1.2.0.dev47 (UTC 2006-11-01)
Default                                  : Yes
Forced                                   : No

Audio
ID                                       : 2
Format                                   : MPEG Audio
Format version                           : Version 1
Format profile                           : Layer 2
Codec ID                                 : A_MPEG/L2
Codec ID/Hint                            : MP2
Duration                                 : 1 h 28 min
Bit rate mode                            : Constant
Bit rate                                 : 128 kb/s
Channel(s)                               : 2 channels
Sampling rate                            : 48.0 kHz
Frame rate                               : 41.667 FPS (1152 SPF)
Compression mode                         : Lossy
Stream size                              : 80.8 MiB (12%)
Title                                    : Kung Fu Panda - 2008 | Filmbol.org
Default                                  : Yes
Forced                                   : No

Film Detayları


 Kung Fu Panda

 Kung Fu Panda

 Kung Fu Panda


Film Fragmanı


Film Detayları


Uptobox ile indir

1Fichier ile indir

1Fichier'den İndiremiyor musun? Tıklayın!


Mega linki şuan da gizli. Kullanıma açmak için konuya yorum yapın ve ardından sayfayı yenileyin.

Mega


Bunun için üzgünüz ancak, bu linke sadece premium üyeler erişebilir.

Filmbol Cloud





Şuan Online!
Şuan Online!
Furkan61 Süper Üye
***
Super Üye

  • Konular0
  • Mesajlar294
  • Rep puanı 4
teşekkürler


Hızlı Menü: