Filmbol Forum Film İndir FHD - FULL HD v Ölülerin Günü (Day of the Dead) - 2008 - TR+ORG - FHD - x264 | tt0489018

Premium Üyelik Al

Bildirimi Kapat
Mega linklerinin şikayet edilmemesi için global erişime kapatıp sadece yorum yapanlara açıyoruz. Bu linkleri gizleme işlemini mecburen yapıyoruz ve yorum yapmanızın siteye değil size faydası vardır. Teşekkürler yazmayı çok görüp, Random/Spam/Anlamsız mesajlar atarak forumu kirletip Mega linklerini açmaya çalışan kullanıcılara süresiz ban atacağız.


Ölülerin Günü (Day of the Dead) - 2008 - TR+ORG - FHD - x264 | tt0489018
TheSteeL
Ölülerin Günü (Day of the Dead) - 2008 - TR+ORG - FHD - x264 | tt0489018
0
58
  • Derecelendirme: 0/5 - 0 oy
  • 1
  • 2
  • 3
  • 4
  • 5
Konuyu Okuyanlar:1 Ziyaretçi
Şuan Online!
Filmin Yayınlanma Tarihi: 2008 
WWW
Şuan Online!
TheSteeL Süper Moderatör
*****
Süper Moderatör



 Ölülerin Günü



Film sektöründe sayısız zombi filmi üretildi, umarız bu eserimiz bir gün gerçeğe dönüşmez. Ölülerin Günü bir yarı devam filmi niteliğinde. Zombilerin hükmü altında dünya ve insanlık zor bir durumdadır. Tek çareleri zombi istilasını engelleyebilecek bir aşı bulmaktır. Fakat bunu yapan doktorlar çok uzun süredir iş başındadırlar ve hiçbir ilerleme kaydedemezler. Askerler ise tek umutları olan doktorları yıllarca korumuş ve ilerleme kaydedememiş olmaları canları sıkmıştır. Bu işten neredeyse vazgeçmek ve kendi yollarına devam etmek isteyen askerleri durdurabilecek tek kişi doktorlar ve bir aşıdır...

Ölülerin Günü (2008) (Day of the Dead) | tt0489018 Filmi Imdb'den 21000 kişi tarafından oylandı ve 4,5 puan aldı. Bu film için editör puanı %55 olarak belirlendi. İyi Seyirler!

Teknik Detaylar

Kod :
General
Unique ID                                : 315444308398632320425097302353921937741 (0xED505D2AB8FADAEE36485CC40657914D)
Complete name                            : /home/TheSteel/Desktop/1/ölülerin.Günü.2008.FHD.BluRay.x264.TR.ENG.Filmbol.mkv
Format                                   : Matroska
Format version                           : Version 4
File size                                : 2.44 GiB
Duration                                 : 1 h 25 min
Overall bit rate                         : 4 084 kb/s
Movie name                               : Ölülerin Günü - Day of the Dead - 2008 | Filmbol.org
Encoded date                             : UTC 2021-04-18 15:55:55
Writing application                      : mkvmerge v31.0.0 ('Dolores In A Shoestand') 64-bit
Writing library                          : libebml v1.3.6 + libmatroska v1.4.9

Video
ID                                       : 1
Format                                   : AVC
Format/Info                              : Advanced Video Codec
Format profile                           : [email protected]
Format settings                          : CABAC / 2 Ref Frames
Format settings, CABAC                   : Yes
Format settings, Reference frames        : 2 frames
Format settings, GOP                     : M=1, N=25
Codec ID                                 : V_MPEG4/ISO/AVC
Duration                                 : 1 h 25 min
Bit rate                                 : 3 808 kb/s
Width                                    : 1 920 pixels
Height                                   : 1 080 pixels
Display aspect ratio                     : 16:9
Frame rate mode                          : Constant
Frame rate                               : 25.000 FPS
Color space                              : YUV
Chroma subsampling                       : 4:2:0
Bit depth                                : 8 bits
Scan type                                : Progressive
Bits/(Pixel*Frame)                       : 0.073
Stream size                              : 2.28 GiB (93%)
Title                                    : FHD - Filmbol.org
Default                                  : Yes
Forced                                   : No

Audio #1
ID                                       : 2
Format                                   : AAC LC
Format/Info                              : Advanced Audio Codec Low Complexity
Codec ID                                 : A_AAC-2
Duration                                 : 1 h 25 min
Bit rate                                 : 144 kb/s
Channel(s)                               : 2 channels
Channel layout                           : L R
Sampling rate                            : 48.0 kHz
Frame rate                               : 46.875 FPS (1024 SPF)
Compression mode                         : Lossy
Stream size                              : 88.5 MiB (4%)
Title                                    : Türkçe - Filmbol.org
Language                                 : Turkish
Default                                  : Yes
Forced                                   : No

Audio #2
ID                                       : 3
Format                                   : AAC LC
Format/Info                              : Advanced Audio Codec Low Complexity
Codec ID                                 : A_AAC-2
Duration                                 : 1 h 25 min
Bit rate                                 : 128 kb/s
Channel(s)                               : 2 channels
Channel layout                           : L R
Sampling rate                            : 48.0 kHz
Frame rate                               : 46.875 FPS (1024 SPF)
Compression mode                         : Lossy
Stream size                              : 78.7 MiB (3%)
Title                                    : Orjinal Dil - Filmbol.org
Language                                 : English
Default                                  : No
Forced                                   : No

Text
ID                                       : 4
Format                                   : UTF-8
Codec ID                                 : S_TEXT/UTF8
Codec ID/Info                            : UTF-8 Plain Text
Duration                                 : 1 h 20 min
Bit rate                                 : 44 b/s
Count of elements                        : 1036
Stream size                              : 26.1 KiB (0%)
Title                                    : Türkçe - Filmbol.org
Language                                 : Turkish
Default                                  : No
Forced                                   : No

Film Detayları


 Ölülerin Günü

 Ölülerin Günü

 Ölülerin Günü


Film Fragmanı


Film Detayları

Bunun için üzgünüz ancak, bu linke sadece premium üyeler erişebilir.

Filmbol Cloud







Hızlı Menü: