Filmbol Forum Film İndir 1080P v Ölülerin Günü (Day of the Dead) - 2008 - TR+ORG - 1080P | tt0489018

Premium Üyelik Al

Bildirimi Kapat
Mega linklerinin şikayet edilmemesi için global erişime kapatıp sadece yorum yapanlara açıyoruz. Bu linkleri gizleme işlemini mecburen yapıyoruz ve yorum yapmanızın siteye değil size faydası vardır. Teşekkürler yazmayı çok görüp, Random/Spam/Anlamsız mesajlar atarak forumu kirletip Mega linklerini açmaya çalışan kullanıcılara süresiz ban atacağız.


Ölülerin Günü (Day of the Dead) - 2008 - TR+ORG - 1080P | tt0489018
TheSteeL
Ölülerin Günü (Day of the Dead) - 2008 - TR+ORG - 1080P | tt0489018
7
171
  • Derecelendirme: 0/5 - 0 oy
  • 1
  • 2
  • 3
  • 4
  • 5
Konuyu Okuyanlar:1 Ziyaretçi
Şuan Online!
Filmin Yayınlanma Tarihi: 2008 
WWW
Şuan Online!
TheSteeL Süper Moderatör
*****
Süper Moderatör



 Ölülerin Günü



Film sektöründe sayısız zombi filmi üretildi, umarız bu eserimiz bir gün gerçeğe dönüşmez. Ölülerin Günü bir yarı devam filmi niteliğinde. Zombilerin hükmü altında dünya ve insanlık zor bir durumdadır. Tek çareleri zombi istilasını engelleyebilecek bir aşı bulmaktır. Fakat bunu yapan doktorlar çok uzun süredir iş başındadırlar ve hiçbir ilerleme kaydedemezler. Askerler ise tek umutları olan doktorları yıllarca korumuş ve ilerleme kaydedememiş olmaları canları sıkmıştır. Bu işten neredeyse vazgeçmek ve kendi yollarına devam etmek isteyen askerleri durdurabilecek tek kişi doktorlar ve bir aşıdır...

Ölülerin Günü (2008) (Day of the Dead) | tt0489018 Filmi Imdb'den 21000 kişi tarafından oylandı ve 4,5 puan aldı. Bu film için editör puanı %55 olarak belirlendi. İyi Seyirler!

Teknik Detaylar

Kod :
General
Unique ID                                : 106417233121898533122786798265882123114 (0x500F36ADA0625FCD8A924BE79E941B6A)
Complete name                            : /home/TheSteel/Desktop/1/ölülerin.Günü.2008.1080p.BluRay.x264.TR.ENG.Filmbol.mkv
Format                                   : Matroska
Format version                           : Version 4
File size                                : 1.51 GiB
Duration                                 : 1 h 25 min
Overall bit rate                         : 2 525 kb/s
Movie name                               : Ölülerin Günü - Day of the Dead - 2008 | Filmbol.org
Encoded date                             : UTC 2021-04-18 16:02:00
Writing application                      : mkvmerge v31.0.0 ('Dolores In A Shoestand') 64-bit
Writing library                          : libebml v1.3.6 + libmatroska v1.4.9

Video
ID                                       : 1
Format                                   : AVC
Format/Info                              : Advanced Video Codec
Format profile                           : [email protected]
Format settings                          : CABAC / 4 Ref Frames
Format settings, CABAC                   : Yes
Format settings, Reference frames        : 4 frames
Codec ID                                 : V_MPEG4/ISO/AVC
Duration                                 : 1 h 25 min
Bit rate                                 : 2 250 kb/s
Width                                    : 1 920 pixels
Height                                   : 1 024 pixels
Display aspect ratio                     : 1.85:1
Frame rate mode                          : Constant
Frame rate                               : 24.000 FPS
Color space                              : YUV
Chroma subsampling                       : 4:2:0
Bit depth                                : 8 bits
Scan type                                : Progressive
Bits/(Pixel*Frame)                       : 0.048
Stream size                              : 1.34 GiB (89%)
Title                                    : 1080P - Filmbol.org
Writing library                          : x264 core 158
Encoding settings                        : cabac=1 / ref=4 / deblock=1:-1:-1 / analyse=0x3:0x133 / me=umh / subme=9 / psy=1 / psy_rd=1.00:0.15 / mixed_ref=1 / me_range=24 / chroma_me=1 / trellis=2 / 8x8dct=1 / cqm=0 / deadzone=21,11 / fast_pskip=0 / chroma_qp_offset=-3 / threads=18 / lookahead_threads=1 / sliced_threads=0 / nr=0 / decimate=1 / interlaced=0 / bluray_compat=0 / constrained_intra=0 / bframes=3 / b_pyramid=2 / b_adapt=2 / b_bias=0 / direct=3 / weightb=1 / open_gop=0 / weightp=2 / keyint=250 / keyint_min=23 / scenecut=40 / intra_refresh=0 / rc_lookahead=60 / rc=2pass / mbtree=1 / bitrate=2250 / ratetol=1.0 / qcomp=0.60 / qpmin=0 / qpmax=69 / qpstep=4 / cplxblur=20.0 / qblur=0.5 / vbv_maxrate=31250 / vbv_bufsize=31250 / nal_hrd=none / filler=0 / ip_ratio=1.40 / aq=1:1.00
Default                                  : Yes
Forced                                   : No

Audio #1
ID                                       : 2
Format                                   : AAC LC
Format/Info                              : Advanced Audio Codec Low Complexity
Codec ID                                 : A_AAC-2
Duration                                 : 1 h 25 min
Bit rate                                 : 144 kb/s
Channel(s)                               : 2 channels
Channel layout                           : L R
Sampling rate                            : 48.0 kHz
Frame rate                               : 46.875 FPS (1024 SPF)
Compression mode                         : Lossy
Stream size                              : 88.5 MiB (6%)
Title                                    : Türkçe - Filmbol.org
Language                                 : Turkish
Default                                  : Yes
Forced                                   : No

Audio #2
ID                                       : 3
Format                                   : AAC LC
Format/Info                              : Advanced Audio Codec Low Complexity
Codec ID                                 : A_AAC-2
Duration                                 : 1 h 25 min
Bit rate                                 : 128 kb/s
Channel(s)                               : 2 channels
Channel layout                           : L R
Sampling rate                            : 48.0 kHz
Frame rate                               : 46.875 FPS (1024 SPF)
Compression mode                         : Lossy
Stream size                              : 78.7 MiB (5%)
Title                                    : Orjinal Dil - Filmbol.org
Language                                 : English
Default                                  : No
Forced                                   : No

Text
ID                                       : 4
Format                                   : UTF-8
Codec ID                                 : S_TEXT/UTF8
Codec ID/Info                            : UTF-8 Plain Text
Duration                                 : 1 h 20 min
Bit rate                                 : 44 b/s
Count of elements                        : 1036
Stream size                              : 26.1 KiB (0%)
Title                                    : Türkçe - Filmbol.org
Language                                 : Turkish
Default                                  : No
Forced                                   : No

Film Detayları


 Ölülerin Günü

 Ölülerin Günü

 Ölülerin Günü


Film Fragmanı


Film Detayları

Uptobox ile indir

1Fichier ile indir

1Fichier'den İndiremiyor musun? Tıklayın!


Mega linki şuan da gizli. Kullanıma açmak için konuya yorum yapın ve ardından sayfayı yenileyin.

Mega


Bunun için üzgünüz ancak, bu linke sadece premium üyeler erişebilir.

Filmbol Cloud





Şuan Offine!
Şuan Offine!
Ugur_1988 Premium Üye
****

  • Konular11
  • Mesajlar100
  • Rep puanı 23
Elinize sağlık güzel olmuş.
Şuan Online!
Şuan Online!
TheSteeL Süper Moderatör
*****
Süper Moderatör

(19-04-2021, Saat: 22:22)Ugur_1988 Adlı Kullanıcıdan Alıntı: Elinize sağlık güzel olmuş.
İyi Seyirler
Şuan Online!
Şuan Online!
BroserBros Kurucu Admin
*******
Admin

FPS sorunundan kaynaklı ses kayması Xvid, 720P ve 1080P sürümlerinde tespit edildi. 

Sorun düzeltildi ve linkler yenilendi. @Ugur_1988
Şuan Offine!
Şuan Offine!
ahmettuncr Süper Üye
***
Super Üye

  • Konular0
  • Mesajlar45
  • Rep puanı 0
Elinize sağlık güzel bir şeye benziyor
Şuan Online!
Şuan Online!
TheSteeL Süper Moderatör
*****
Süper Moderatör

(21-04-2021, Saat: 20:49)ahmettuncr Adlı Kullanıcıdan Alıntı: Elinize sağlık güzel bir şeye benziyor
İyi Seyirler
Şuan Offine!
Şuan Offine!
ahleten Uzman Üye
**
Uzman Üye

  • Konular0
  • Mesajlar14
  • Rep puanı 0
teşekkürler
Şuan Online!
Şuan Online!
TheSteeL Süper Moderatör
*****
Süper Moderatör

(25-04-2021, Saat: 02:39)ahleten Adlı Kullanıcıdan Alıntı: teşekkürler
İyi Seyirler


Hızlı Menü: