Filmbol Forum Film İndir 1080P v Aşk ve Canavarlar (Love and Monsters) - 2020 - TR+ORG - 1080P | tt2222042

Premium Üyelik Al

Bildirimi Kapat
Mega linklerinin şikayet edilmemesi için global erişime kapatıp sadece yorum yapanlara açıyoruz. Bu linkleri gizleme işlemini mecburen yapıyoruz ve yorum yapmanızın siteye değil size faydası vardır. Teşekkürler yazmayı çok görüp, Random/Spam/Anlamsız mesajlar atarak forumu kirletip Mega linklerini açmaya çalışan kullanıcılara süresiz ban atacağız.


Aşk ve Canavarlar (Love and Monsters) - 2020 - TR+ORG - 1080P | tt2222042
TheSteeL
Aşk ve Canavarlar (Love and Monsters) - 2020 - TR+ORG - 1080P | tt2222042
5
204
  • Derecelendirme: 0/5 - 0 oy
  • 1
  • 2
  • 3
  • 4
  • 5
Konuyu Okuyanlar:1 Ziyaretçi
Şuan Online!
Filmin Yayınlanma Tarihi: 2020 
WWW
Şuan Online!
TheSteeL Süper Moderatör
*****
Süper Moderatör



 Aşk ve Canavarlar



Dylan O'Brien gibi tanıdık isimler bulunduran film, Bilim kurgu ve aşk'ı bir araya getiriyor. Filmde ki kahramanımız bulduğu aşkı kaçırmamak için büyülü ve akılalmaz canavarların bulunduğu bir dünyaya giriş yaparak burada aşkına ulaşmak için insanüstü varlıklar ile savaşıyor...

Aşk ve Canavarlar (2020) (Love and Monsters) | tt2222042 Filmi Imdb'den 37500 kişi tarafından oylandı ve 7,0 puan aldı. Bu film için editör puanı %75 olarak belirlendi. İyi Seyirler!

Teknik Detaylar

Kod :
General
Unique ID                                : 112073532289478777095916428304117857557 (0x545093C2219094BAD5F6690740CAFD15)
Complete name                            : /home/TheSteel/Desktop/1/Aşk.Ve.Canavarlar.2020.1080p.BluRay.x264.TR.ENG.Filmbol.mkv
Format                                   : Matroska
Format version                           : Version 4
File size                                : 2.34 GiB
Duration                                 : 1 h 49 min
Overall bit rate                         : 3 056 kb/s
Movie name                               : Love and Monsters - Aşk ve Canavarlar - 2020 | Filmbol.org
Encoded date                             : UTC 2021-04-14 15:38:58
Writing application                      : mkvmerge v31.0.0 ('Dolores In A Shoestand') 64-bit
Writing library                          : libebml v1.3.6 + libmatroska v1.4.9

Video
ID                                       : 1
Format                                   : AVC
Format/Info                              : Advanced Video Codec
Format profile                           : [email protected]
Format settings                          : CABAC / 4 Ref Frames
Format settings, CABAC                   : Yes
Format settings, Reference frames        : 4 frames
Codec ID                                 : V_MPEG4/ISO/AVC
Duration                                 : 1 h 48 min
Bit rate                                 : 2 500 kb/s
Width                                    : 1 920 pixels
Height                                   : 804 pixels
Display aspect ratio                     : 2.40:1
Frame rate mode                          : Constant
Frame rate                               : 23.976 (23976/1000) FPS
Color space                              : YUV
Chroma subsampling                       : 4:2:0
Bit depth                                : 8 bits
Scan type                                : Progressive
Bits/(Pixel*Frame)                       : 0.068
Stream size                              : 1.90 GiB (81%)
Title                                    : Love and Monsters - Aşk ve Canavarlar - 2020 | Filmbol.org
Writing library                          : x264 core 152 r2851M ba24899
Encoding settings                        : cabac=1 / ref=4 / deblock=1:-1:-1 / analyse=0x3:0x113 / me=umh / subme=9 / psy=1 / psy_rd=1.00:0.15 / mixed_ref=1 / me_range=24 / chroma_me=1 / trellis=2 / 8x8dct=1 / cqm=0 / deadzone=21,11 / fast_pskip=1 / chroma_qp_offset=-3 / threads=16 / lookahead_threads=4 / sliced_threads=0 / nr=0 / decimate=1 / interlaced=0 / bluray_compat=0 / constrained_intra=0 / bframes=3 / b_pyramid=2 / b_adapt=2 / b_bias=0 / direct=3 / weightb=1 / open_gop=0 / weightp=2 / keyint=250 / keyint_min=25 / scenecut=40 / intra_refresh=0 / rc_lookahead=50 / rc=2pass / mbtree=1 / bitrate=2500 / ratetol=1.0 / qcomp=0.60 / qpmin=0 / qpmax=69 / qpstep=4 / cplxblur=20.0 / qblur=0.5 / vbv_maxrate=31250 / vbv_bufsize=31250 / nal_hrd=none / filler=0 / ip_ratio=1.40 / aq=3:1.00
Language                                 : French
Default                                  : Yes
Forced                                   : No

Audio #1
ID                                       : 2
Format                                   : AC-3
Format/Info                              : Audio Coding 3
Commercial name                          : Dolby Digital
Codec ID                                 : A_AC3
Duration                                 : 1 h 49 min
Bit rate mode                            : Constant
Bit rate                                 : 384 kb/s
Channel(s)                               : 6 channels
Channel layout                           : L R C LFE Ls Rs
Sampling rate                            : 48.0 kHz
Frame rate                               : 31.250 FPS (1536 SPF)
Compression mode                         : Lossy
Delay relative to video                  : -43 ms
Stream size                              : 301 MiB (13%)
Title                                    : Love and Monsters - Aşk ve Canavarlar - 2020 | Filmbol.org
Language                                 : Turkish
Service kind                             : Complete Main
Default                                  : Yes
Forced                                   : No

Audio #2
ID                                       : 3
Format                                   : AC-3
Format/Info                              : Audio Coding 3
Commercial name                          : Dolby Digital
Codec ID                                 : A_AC3
Duration                                 : 1 h 48 min
Bit rate mode                            : Constant
Bit rate                                 : 192 kb/s
Channel(s)                               : 2 channels
Channel layout                           : L R
Sampling rate                            : 48.0 kHz
Frame rate                               : 31.250 FPS (1536 SPF)
Compression mode                         : Lossy
Delay relative to video                  : -43 ms
Stream size                              : 150 MiB (6%)
Title                                    : Love and Monsters - Aşk ve Canavarlar - 2020 | Filmbol.org
Language                                 : English
Service kind                             : Complete Main
Default                                  : No
Forced                                   : No

Text #1
ID                                       : 4
Format                                   : UTF-8
Codec ID                                 : S_TEXT/UTF8
Codec ID/Info                            : UTF-8 Plain Text
Duration                                 : 1 h 47 min
Bit rate                                 : 1 b/s
Count of elements                        : 29
Stream size                              : 845 Bytes (0%)
Title                                    : Love and Monsters - Aşk ve Canavarlar - 2020 | Filmbol.org
Language                                 : Turkish
Default                                  : Yes
Forced                                   : Yes

Text #2
ID                                       : 5
Format                                   : UTF-8
Codec ID                                 : S_TEXT/UTF8
Codec ID/Info                            : UTF-8 Plain Text
Duration                                 : 1 h 47 min
Bit rate                                 : 55 b/s
Count of elements                        : 1402
Stream size                              : 43.9 KiB (0%)
Title                                    : Love and Monsters - Aşk ve Canavarlar - 2020 | Filmbol.org
Language                                 : Turkish
Default                                  : No
Forced                                   : No

Film Detayları


 Aşk ve Canavarlar

 Aşk ve Canavarlar

 Aşk ve Canavarlar


Film Fragmanı


Film Detayları

Uptobox ile indir

1Fichier ile indir

1Fichier'den İndiremiyor musun? Tıklayın!


Mega linki şuan da gizli. Kullanıma açmak için konuya yorum yapın ve ardından sayfayı yenileyin.

Mega


Bunun için üzgünüz ancak, bu linke sadece premium üyeler erişebilir.

Filmbol Cloud





Şuan Offine!
Şuan Offine!
Ugur_1988 Premium Üye
****

  • Konular11
  • Mesajlar100
  • Rep puanı 23
Bu filmi Türkçe Dublaj olarak paylaşan ilk sitesiniz görüntü ve sesi iyi elinize sağlık.
Şuan Online!
Şuan Online!
TheSteeL Süper Moderatör
*****
Süper Moderatör

(15-04-2021, Saat: 22:35)Ugur_1988 Adlı Kullanıcıdan Alıntı: Bu filmi Türkçe Dublaj olarak paylaşan ilk sitesiniz görüntü ve sesi iyi elinize sağlık.
Teşekkürler İyi Seyirler
Şuan Offine!
Şuan Offine!
Keskinklicc Yeni Üye
*
Üye

  • Konular0
  • Mesajlar1
  • Rep puanı 0
bakalım nasılmış
Şuan Online!
Şuan Online!
kral_197 Uzman Üye
**
Uzman Üye

  • Konular0
  • Mesajlar10
  • Rep puanı 0
ellerinize sağlık
Şuan Online!
Şuan Online!
TheSteeL Süper Moderatör
*****
Süper Moderatör

(10-05-2021, Saat: 20:30)kral_197 Adlı Kullanıcıdan Alıntı: ellerinize sağlık
İyi Seyirler


Hızlı Menü: