Filmbol Forum Film İndir BRRip XviD v Aşk ve Canavarlar (Love and Monsters) - 2020 - TR - BRRip XviD | tt2222042

Premium Üyelik Al

Bildirimi Kapat
Mega linklerinin şikayet edilmemesi için global erişime kapatıp sadece yorum yapanlara açıyoruz. Bu linkleri gizleme işlemini mecburen yapıyoruz ve yorum yapmanızın siteye değil size faydası vardır. Teşekkürler yazmayı çok görüp, Random/Spam/Anlamsız mesajlar atarak forumu kirletip Mega linklerini açmaya çalışan kullanıcılara süresiz ban atacağız.


Aşk ve Canavarlar (Love and Monsters) - 2020 - TR - BRRip XviD | tt2222042
TheSteeL
Aşk ve Canavarlar (Love and Monsters) - 2020 - TR - BRRip XviD | tt2222042
3
120
  • Derecelendirme: 0/5 - 0 oy
  • 1
  • 2
  • 3
  • 4
  • 5
Konuyu Okuyanlar:1 Ziyaretçi
Şuan Online!
Filmin Yayınlanma Tarihi: 2020 
WWW
Şuan Online!
TheSteeL Süper Moderatör
*****
Süper Moderatör



 Aşk ve Canavarlar



Dylan O'Brien gibi tanıdık isimler bulunduran film, Bilim kurgu ve aşk'ı bir araya getiriyor. Filmde ki kahramanımız bulduğu aşkı kaçırmamak için büyülü ve akılalmaz canavarların bulunduğu bir dünyaya giriş yaparak burada aşkına ulaşmak için insanüstü varlıklar ile savaşıyor...

Aşk ve Canavarlar (2020) (Love and Monsters) | tt2222042 Filmi Imdb'den 37500 kişi tarafından oylandı ve 7,0 puan aldı. Bu film için editör puanı %75 olarak belirlendi. İyi Seyirler!

Teknik Detaylar

Kod :
General
Unique ID                                : 262929364304448795442265703825731908785 (0xC5CE5A8559AC1FBA17CB6ACC61BE74B1)
Complete name                            : /home/TheSteel/Desktop/1/Aşk.Ve.Canavarlar.2020.BDRip.XViD.TR.Filmbol.avi
Format                                   : Matroska
Format version                           : Version 4
File size                                : 1.21 GiB
Duration                                 : 1 h 48 min
Overall bit rate                         : 1 594 kb/s
Movie name                               : Love and Monsters - Aşk ve Canavarlar - 2020 | Filmbol.org
Encoded date                             : UTC 2021-04-14 15:43:18
Writing application                      : mkvmerge v31.0.0 ('Dolores In A Shoestand') 64-bit
Writing library                          : libebml v1.3.6 + libmatroska v1.4.9
FileExtension_Invalid                    : mkv mk3d mka mks

Video
ID                                       : 1
Format                                   : MPEG-4 Visual
Format profile                           : Advanced [email protected]
Format settings                          : BVOP1 / Custom Matrix
Format settings, BVOP                    : 1
Format settings, QPel                    : No
Format settings, GMC                     : No warppoints
Format settings, Matrix                  : Custom
Codec ID                                 : V_MS/VFW/FOURCC / XVID
Codec ID/Hint                            : XviD
Duration                                 : 1 h 48 min
Bit rate                                 : 1 464 kb/s
Width                                    : 720 pixels
Height                                   : 304 pixels
Display aspect ratio                     : 2.35:1
Frame rate mode                          : Constant
Frame rate                               : 23.976 (23976/1000) FPS
Color space                              : YUV
Chroma subsampling                       : 4:2:0
Bit depth                                : 8 bits
Scan type                                : Progressive
Compression mode                         : Lossy
Bits/(Pixel*Frame)                       : 0.279
Stream size                              : 1.11 GiB (92%)
Title                                    : Love and Monsters - Aşk ve Canavarlar - 2020 | Filmbol.org
Writing library                          : XviD 73
Default                                  : Yes
Forced                                   : No

Audio
ID                                       : 2
Format                                   : MPEG Audio
Format version                           : Version 1
Format profile                           : Layer 3
Format settings                          : Joint stereo
Codec ID                                 : A_MPEG/L3
Codec ID/Hint                            : MP3
Duration                                 : 1 h 48 min
Bit rate mode                            : Constant
Bit rate                                 : 128 kb/s
Channel(s)                               : 2 channels
Sampling rate                            : 48.0 kHz
Frame rate                               : 41.667 FPS (1152 SPF)
Compression mode                         : Lossy
Stream size                              : 100 MiB (8%)
Title                                    : Love and Monsters - Aşk ve Canavarlar - 2020 | Filmbol.org
Default                                  : Yes
Forced                                   : No

Film Detayları


 Aşk ve Canavarlar

 Aşk ve Canavarlar

 Aşk ve Canavarlar


Film Fragmanı


Film Detayları


Uptobox ile indir

1Fichier ile indir

1Fichier'den İndiremiyor musun? Tıklayın!


Mega linki şuan da gizli. Kullanıma açmak için konuya yorum yapın ve ardından sayfayı yenileyin.

Mega


Bunun için üzgünüz ancak, bu linke sadece premium üyeler erişebilir.

Filmbol Cloud





Şuan Online!
Şuan Online!
Furkan61 Süper Üye
***
Super Üye

  • Konular0
  • Mesajlar294
  • Rep puanı 4
güzel
Şuan Offine!
Şuan Offine!
bbalta Yeni Üye
*
Üye

  • Konular0
  • Mesajlar5
  • Rep puanı 0
Güzel film, teşekkürler
Şuan Online!
Şuan Online!
TheSteeL Süper Moderatör
*****
Süper Moderatör

(31-05-2021, Saat: 17:06)bbalta Adlı Kullanıcıdan Alıntı: Güzel film, teşekkürler
İyi Seyirler


Hızlı Menü: