Filmbol Forum Film İndir FHD - FULL HD v Polaroid (Polaroid) - 2019 - TR+ORG - FHD - x264 | tt5598292
Mega linklerinin şikayet edilmemesi için global erişime kapatıp sadece yorum yapanlara açıyoruz. Bu linkleri gizleme işlemini mecburen yapıyoruz ve yorum yapmanızın siteye değil size faydası vardır. Teşekürler yazmayı çok görüp, Random/Spam mesajlar atarak Mega linklerini açmaya çalışan kullanıcılara önce süresiz ban, devam ederse IP ban atacağız.
Filmbol'da moderatör olmak ister misiniz? Bizimle iletişime geçmek için tıklayın!
Polaroid (Polaroid) - 2019 - TR+ORG - FHD - x264 | tt5598292
TheSteeL
Polaroid (Polaroid) - 2019 - TR+ORG - FHD - x264 | tt5598292
0
53
  • Derecelendirme: 0/5 - 0 oy
  • 1
  • 2
  • 3
  • 4
  • 5
Konuyu Okuyanlar:1 Ziyaretçi
Şuan Online!
Filmin Yayınlanma Tarihi: 2019 
WWW
Şuan Online!
TheSteeL Süper Moderatör
*****
Süper Moderatör



 Polaroid



Polaroid, diğer korku filmlerden çok farklı bir şekilde karşımıza çıkıyor. Hafif Bilim-Kurgu içeren film, Bird Fitcher'in eski bir fotoğraf makinesi bulması ile başlıyor. Bird, bulduğu nostaljik fotoğraf makinesine çok sevinir ve onunla fotoğraf çekmeye başlar. Fakat yakın zamanda ölümler gerçekleşir. Bird bir şeyin farkına varır, kimin fotoğrafını çekse o kişi çok farklı bir şekilde ölüm yaşar. Bird'in elinde çok güçlü bir silah vardır fakat bu silah lanetlidir. Bird'in yapması gereken makineyi doğru şekilde kullanmaktır...

Polaroid (2019) (Polaroid) | tt5598292 Filmi Imdb'den 11700 kişi tarafından oylandı ve 5,1 puan aldı. Bu film için editör puanı %58 olarak belirlendi. İyi Seyirler!

Teknik Detaylar

Kod :
General
Unique ID                                : 205480481474716905195376251168480248034 (0x9A9619E9F13B6293CB99E2E05C6340E2)
Complete name                            : /home/TheSteel/Desktop/3/Polaroid.2019.FHD.BluRay.x264.TR.ENG.Filmbol.mkv
Format                                   : Matroska
Format version                           : Version 4
File size                                : 5.39 GiB
Duration                                 : 1 h 27 min
Overall bit rate                         : 8 773 kb/s
Movie name                               : Polaroid - 2019 - Filmbol.org
Encoded date                             : UTC 2021-04-05 15:26:30
Writing application                      : mkvmerge v31.0.0 ('Dolores In A Shoestand') 64-bit
Writing library                          : libebml v1.3.6 + libmatroska v1.4.9

Video
ID                                       : 1
Format                                   : AVC
Format/Info                              : Advanced Video Codec
Format profile                           : [email protected]
Format settings                          : CABAC / 5 Ref Frames
Format settings, CABAC                   : Yes
Format settings, Reference frames        : 5 frames
Codec ID                                 : V_MPEG4/ISO/AVC
Duration                                 : 1 h 27 min
Bit rate                                 : 8 133 kb/s
Width                                    : 1 920 pixels
Height                                   : 800 pixels
Display aspect ratio                     : 2.40:1
Frame rate mode                          : Constant
Frame rate                               : 24.000 FPS
Color space                              : YUV
Chroma subsampling                       : 4:2:0
Bit depth                                : 8 bits
Scan type                                : Progressive
Bits/(Pixel*Frame)                       : 0.221
Stream size                              : 5.00 GiB (93%)
Title                                    : Polaroid - 2019 - Filmbol.org
Writing library                          : x264 core 157 r2958 57baac4
Encoding settings                        : cabac=1 / ref=5 / deblock=1:-1:-1 / analyse=0x3:0x133 / me=tesa / subme=11 / psy=1 / psy_rd=1.00:0.00 / mixed_ref=1 / me_range=32 / chroma_me=1 / trellis=2 / 8x8dct=1 / cqm=0 / deadzone=21,11 / fast_pskip=0 / chroma_qp_offset=-2 / threads=17 / lookahead_threads=4 / sliced_threads=0 / nr=0 / decimate=0 / interlaced=0 / bluray_compat=0 / constrained_intra=0 / bframes=16 / b_pyramid=2 / b_adapt=2 / b_bias=0 / direct=3 / weightb=1 / open_gop=0 / weightp=2 / keyint=240 / keyint_min=23 / scenecut=40 / intra_refresh=0 / rc_lookahead=120 / rc=2pass / mbtree=0 / bitrate=8133 / ratetol=1.0 / qcomp=0.70 / qpmin=0 / qpmax=69 / qpstep=4 / cplxblur=20.0 / qblur=0.5 / vbv_maxrate=50000 / vbv_bufsize=62500 / nal_hrd=none / filler=0 / ip_ratio=1.40 / pb_ratio=1.30 / aq=3:0.90
Language                                 : English
Default                                  : Yes
Forced                                   : No

Audio #1
ID                                       : 2
Format                                   : AC-3
Format/Info                              : Audio Coding 3
Commercial name                          : Dolby Digital
Codec ID                                 : A_AC3
Duration                                 : 1 h 27 min
Bit rate mode                            : Constant
Bit rate                                 : 192 kb/s
Channel(s)                               : 2 channels
Channel layout                           : L R
Sampling rate                            : 48.0 kHz
Frame rate                               : 31.250 FPS (1536 SPF)
Compression mode                         : Lossy
Stream size                              : 121 MiB (2%)
Title                                    : Polaroid - 2019 - Filmbol.org
Language                                 : Turkish
Service kind                             : Complete Main
Default                                  : Yes
Forced                                   : No

Audio #2
ID                                       : 3
Format                                   : AC-3
Format/Info                              : Audio Coding 3
Commercial name                          : Dolby Digital
Codec ID                                 : A_AC3
Duration                                 : 1 h 27 min
Bit rate mode                            : Constant
Bit rate                                 : 448 kb/s
Channel(s)                               : 6 channels
Channel layout                           : L R C LFE Ls Rs
Sampling rate                            : 48.0 kHz
Frame rate                               : 31.250 FPS (1536 SPF)
Compression mode                         : Lossy
Stream size                              : 282 MiB (5%)
Title                                    : Polaroid - 2019 - Filmbol.org
Language                                 : English
Service kind                             : Complete Main
Default                                  : No
Forced                                   : No

Text
ID                                       : 4
Format                                   : UTF-8
Codec ID                                 : S_TEXT/UTF8
Codec ID/Info                            : UTF-8 Plain Text
Duration                                 : 1 h 22 min
Bit rate                                 : 37 b/s
Count of elements                        : 679
Stream size                              : 22.3 KiB (0%)
Title                                    : Polaroid - 2019 - Filmbol.org
Language                                 : Turkish
Default                                  : No
Forced                                   : No

Film Detayları


 Polaroid

 Polaroid

 Polaroid


Film Fragmanı


Film Detayları

Bunun için üzgünüz ancak, bu linke sadece premium üyeler erişebilir.

Filmbol Cloud







Konu ile Alakalı Benzer Konular
Konular Yazar Yorumlar Okunma Son Yorum
Filmin Yayınlanma Tarihi: 2021
Yıldırım Gücü (Thunder Force) - 2021 - TR+ORG - FHD - x264 | tt10121392 TheSteeL 0 6 7 saat önce
Son Yorum: TheSteeL
Filmin Yayınlanma Tarihi: 2012
Gerçeğin Peşinde (Man on a Ledge) - 2012 - TR+ORG - FHD - x264 | tt1568338 BroserBros 0 14 10-04-2021, Saat: 20:00
Son Yorum: BroserBros
Filmin Yayınlanma Tarihi: 2006
X-Men: Son Direniş (X-Men: The Last Stand) - 2006 - TR+ORG - FHD - x264 | tt0376994 BroserBros 0 14 10-04-2021, Saat: 19:46
Son Yorum: BroserBros
Filmin Yayınlanma Tarihi: 2003
X-Men 2 (X2: X-Men United) - 2003 - TR+ORG - FHD - x264 | tt0290334 BroserBros 0 13 10-04-2021, Saat: 18:57
Son Yorum: BroserBros
Filmin Yayınlanma Tarihi: 2000
X-Men 1 (X-Men) - 2000 - TR+ORG - FHD - x264 | tt0120903 BroserBros 0 12 10-04-2021, Saat: 18:44
Son Yorum: BroserBros

Hızlı Menü: