Filmbol Forum Film İndir BRRip XviD v Polaroid (Polaroid) - 2019 - TR - BRRip XviD | tt5598292
Mega linklerinin şikayet edilmemesi için global erişime kapatıp sadece yorum yapanlara açıyoruz. Bu linkleri gizleme işlemini mecburen yapıyoruz ve yorum yapmanızın siteye değil size faydası vardır. Teşekürler yazmayı çok görüp, Random/Spam mesajlar atarak Mega linklerini açmaya çalışan kullanıcılara önce süresiz ban, devam ederse IP ban atacağız.
Filmbol'da moderatör olmak ister misiniz? Bizimle iletişime geçmek için tıklayın!
Polaroid (Polaroid) - 2019 - TR - BRRip XviD | tt5598292
TheSteeL
Polaroid (Polaroid) - 2019 - TR - BRRip XviD | tt5598292
0
48
  • Derecelendirme: 0/5 - 0 oy
  • 1
  • 2
  • 3
  • 4
  • 5
Konuyu Okuyanlar:1 Ziyaretçi
Şuan Online!
Filmin Yayınlanma Tarihi: 2019 
WWW
Şuan Online!
TheSteeL Süper Moderatör
*****
Süper Moderatör



 Polaroid



Polaroid, diğer korku filmlerden çok farklı bir şekilde karşımıza çıkıyor. Hafif Bilim-Kurgu içeren film, Bird Fitcher'in eski bir fotoğraf makinesi bulması ile başlıyor. Bird, bulduğu nostaljik fotoğraf makinesine çok sevinir ve onunla fotoğraf çekmeye başlar. Fakat yakın zamanda ölümler gerçekleşir. Bird bir şeyin farkına varır, kimin fotoğrafını çekse o kişi çok farklı bir şekilde ölüm yaşar. Bird'in elinde çok güçlü bir silah vardır fakat bu silah lanetlidir. Bird'in yapması gereken makineyi doğru şekilde kullanmaktır...

Polaroid (2019) (Polaroid) | tt5598292 Filmi Imdb'den 11700 kişi tarafından oylandı ve 5,1 puan aldı. Bu film için editör puanı %58 olarak belirlendi. İyi Seyirler!

Teknik Detaylar

Kod :
General
Unique ID                                : 36536452204262740722494171794393737664 (0x1B7CAA2C269478DAE75235CB3B6329C0)
Complete name                            : /home/TheSteel/Desktop/3/Polaroid.2019.BDRip.XViD.TR.Filmbol.avi
Format                                   : Matroska
Format version                           : Version 4
File size                                : 1.28 GiB
Duration                                 : 1 h 27 min
Overall bit rate                         : 2 081 kb/s
Movie name                               : Polaroid - 2019 - Filmbol.org
Encoded date                             : UTC 2021-04-05 15:28:38
Writing application                      : mkvmerge v31.0.0 ('Dolores In A Shoestand') 64-bit
Writing library                          : libebml v1.3.6 + libmatroska v1.4.9
FileExtension_Invalid                    : mkv mk3d mka mks

Video
ID                                       : 1
Format                                   : MPEG-4 Visual
Format profile                           : Advanced [email protected]
Format settings                          : BVOP1 / Custom Matrix
Format settings, BVOP                    : 1
Format settings, QPel                    : No
Format settings, GMC                     : No warppoints
Format settings, Matrix                  : Custom
Codec ID                                 : V_MS/VFW/FOURCC / XVID
Codec ID/Hint                            : XviD
Duration                                 : 1 h 27 min
Bit rate                                 : 1 951 kb/s
Width                                    : 720 pixels
Height                                   : 304 pixels
Display aspect ratio                     : 2.35:1
Frame rate mode                          : Constant
Frame rate                               : 24.000 FPS
Color space                              : YUV
Chroma subsampling                       : 4:2:0
Bit depth                                : 8 bits
Scan type                                : Progressive
Compression mode                         : Lossy
Bits/(Pixel*Frame)                       : 0.371
Stream size                              : 1.20 GiB (94%)
Title                                    : Polaroid - 2019 - Filmbol.org
Writing library                          : XviD 73
Default                                  : Yes
Forced                                   : No

Audio
ID                                       : 2
Format                                   : MPEG Audio
Format version                           : Version 1
Format profile                           : Layer 3
Format settings                          : Joint stereo
Codec ID                                 : A_MPEG/L3
Codec ID/Hint                            : MP3
Duration                                 : 1 h 27 min
Bit rate mode                            : Constant
Bit rate                                 : 128 kb/s
Channel(s)                               : 2 channels
Sampling rate                            : 48.0 kHz
Frame rate                               : 41.667 FPS (1152 SPF)
Compression mode                         : Lossy
Stream size                              : 80.6 MiB (6%)
Title                                    : Polaroid - 2019 - Filmbol.org
Writing library                          : LAME3.99.5
Default                                  : Yes
Forced                                   : No

Film Detayları


 Polaroid

 Polaroid

 Polaroid


Film Fragmanı


Film Detayları


Uptobox ile indir

1Fichier ile indir

1Fichier'den İndiremiyor musun? Tıklayın!


Mega linki şuan da gizli. Kullanıma açmak için konuya yorum yapın ve ardından sayfayı yenileyin.

Mega


Bunun için üzgünüz ancak, bu linke sadece premium üyeler erişebilir.

Filmbol Cloud







Konu ile Alakalı Benzer Konular
Konular Yazar Yorumlar Okunma Son Yorum
Filmin Yayınlanma Tarihi: 2021
Yıldırım Gücü (Thunder Force) - 2021 - TR - BRRip XviD | tt10121392 TheSteeL 0 7 7 saat önce
Son Yorum: TheSteeL
Filmin Yayınlanma Tarihi: 2019
47 Metre Derinde: Kafes (47 Meters Down: Uncaged) - 2019 - TR - BRRip XviD BroserBros 2 99 9 saat önce
Son Yorum: ömerk
Filmin Yayınlanma Tarihi: 2020
Kadaver (Cadaver) - 2020 - TR - BRRip XviD BroserBros 1 78 9 saat önce
Son Yorum: ömerk
Filmin Yayınlanma Tarihi: 2006
Arabalar (Cars) - 2006 - TR - BRRip XviD BroserBros 4 352 , Saat: 02:36
Son Yorum: paboo
Filmin Yayınlanma Tarihi: 2020
Dipte (Breaking Surface) - 2020 - TR - BRRip XviD | tt10081762 TheSteeL 3 68 , Saat: 02:15
Son Yorum: TheSteeL

Hızlı Menü: