Filmbol Forum Film İndir FHD - FULL HD v Terminatör: Kara Kader (Terminator: Dark Fate) - 2019 - TR+ORG - FHD - x264 | tt6450804
Mega linklerinin şikayet edilmemesi için global erişime kapatıp sadece yorum yapanlara açıyoruz. Bu linkleri gizleme işlemini mecburen yapıyoruz ve yorum yapmanızın siteye değil size faydası vardır. Teşekürler yazmayı çok görüp, Random/Spam mesajlar atarak Mega linklerini açmaya çalışan kullanıcılara önce süresiz ban, devam ederse IP ban atacağız.
Filmbol'da moderatör olmak ister misiniz? Bizimle iletişime geçmek için tıklayın!
Terminatör: Kara Kader (Terminator: Dark Fate) - 2019 - TR+ORG - FHD - x264 | tt6450804
BroserBros
Terminatör: Kara Kader (Terminator: Dark Fate) - 2019 - TR+ORG - FHD - x264 | tt6450804
0
45
  • Derecelendirme: 0/5 - 0 oy
  • 1
  • 2
  • 3
  • 4
  • 5
Konuyu Okuyanlar:1 Ziyaretçi
Şuan Online!
Filmin Yayınlanma Tarihi: 2019 
WWW
Şuan Online!
BroserBros Kurucu Admin
*******
Admin



 Terminatör: Kara Kader




Terminatör: Kara Kader, gelecekten gelen Terminatörlere karşı zorlu bir mücadeleye giren Sarah Connor’ın hikayesini konu ediyor. Sarah Conor’ın Mahşet Günü’nü engellemesinin ve insan ırkının kaderini yeniden belirlemesinin üzerinden yıllar geçmiştir. Dani Ramos, kardeşi ve babasıyla ile birlikte Mexico City’de kendi halinde yaşayan bir kadındır. Ancak gelecekten süper asker özelliklerine sahip olan Rev-9 adındaki yeni bir Terminatör, Dani’yi öldürmek üzere geçmişe gelir. Dani’nin kurtulma şansı, Grace ve Sarah Conor’a bağlıdır. Grace de gelecekten gelen bir süper askerdir. Bu sırada Rev-9, hiçbir şeyi umursamadan hedefine giden yolda karşısına çıkan her şeyi yok ediyordur. Dani, Grace ve Sarah’nın yolu sonunda T-800’e düşecektir. Sarah’nın geçmişi, onların tek umudu olur.

Terminatör: Kara Kader (2019) (Terminator: Dark Fate) | tt6450804 Filmi Imdb'den 153,000 kişi tarafından oylandı ve 6,2 puan aldı. Bu film için editör puanı %70 olarak belirlendi. İyi Seyirler!

Teknik Detaylar

Kod :
General
Unique ID                                : 23305919855304315341625694863765280460 (0x11888E908B8664C8230594D08B9816CC)
Complete name                            : /home/BroserBros/Desktop/2/Terminator.Kara.Kader.2019.FHD.BluRay.x264.TR.ENG.Filmbol.mkv
Format                                   : Matroska
Format version                           : Version 4
File size                                : 6.42 GiB
Duration                                 : 2 h 8 min
Overall bit rate                         : 7 179 kb/s
Movie name                               : Terminatör Kara Kader - Terminator Dark Fate - 2019 | Filmbol.org
Encoded date                             : UTC 2021-04-05 17:22:56
Writing application                      : mkvmerge v53.0.0 ('Fool's Gold') 64-bit
Writing library                          : libebml v1.4.1 + libmatroska v1.6.2

Video
ID                                       : 1
Format                                   : AVC
Format/Info                              : Advanced Video Codec
Format profile                           : [email protected]
Format settings                          : CABAC / 2 Ref Frames
Format settings, CABAC                   : Yes
Format settings, Reference frames        : 2 frames
Codec ID                                 : V_MPEG4/ISO/AVC
Duration                                 : 2 h 8 min
Bit rate                                 : 6 410 kb/s
Width                                    : 1 920 pixels
Height                                   : 1 080 pixels
Display aspect ratio                     : 16:9
Frame rate mode                          : Constant
Frame rate                               : 23.976 (24000/1001) FPS
Color space                              : YUV
Chroma subsampling                       : 4:2:0
Bit depth                                : 8 bits
Scan type                                : Progressive
Bits/(Pixel*Frame)                       : 0.129
Stream size                              : 5.74 GiB (89%)
Writing library                          : x264 core 155 r2901 7d0ff22
Default                                  : Yes
Forced                                   : No
Color range                              : Limited
Color primaries                          : BT.709
Transfer characteristics                 : BT.709
Matrix coefficients                      : BT.709

Audio #1
ID                                       : 2
Format                                   : AC-3
Format/Info                              : Audio Coding 3
Commercial name                          : Dolby Digital
Codec ID                                 : A_AC3
Duration                                 : 2 h 8 min
Bit rate mode                            : Constant
Bit rate                                 : 384 kb/s
Channel(s)                               : 6 channels
Channel layout                           : L R C LFE Ls Rs
Sampling rate                            : 48.0 kHz
Frame rate                               : 31.250 FPS (1536 SPF)
Compression mode                         : Lossy
Stream size                              : 352 MiB (5%)
Title                                    : Türkçe - Filmbol.org
Language                                 : Turkish
Service kind                             : Complete Main
Default                                  : Yes
Forced                                   : No

Audio #2
ID                                       : 3
Format                                   : AC-3
Format/Info                              : Audio Coding 3
Commercial name                          : Dolby Digital
Codec ID                                 : A_AC3
Duration                                 : 2 h 8 min
Bit rate mode                            : Constant
Bit rate                                 : 384 kb/s
Channel(s)                               : 6 channels
Channel layout                           : L R C LFE Ls Rs
Sampling rate                            : 48.0 kHz
Frame rate                               : 31.250 FPS (1536 SPF)
Compression mode                         : Lossy
Stream size                              : 352 MiB (5%)
Title                                    : Orjinal Dil - Filmbol.org
Language                                 : English
Service kind                             : Complete Main
Default                                  : No
Forced                                   : No

Text #1
ID                                       : 4
Format                                   : UTF-8
Codec ID                                 : S_TEXT/UTF8
Codec ID/Info                            : UTF-8 Plain Text
Duration                                 : 2 h 7 min
Bit rate                                 : 31 b/s
Count of elements                        : 1247
Stream size                              : 29.7 KiB (0%)
Title                                    : Türkçe - Filmbol.org
Language                                 : Turkish
Default                                  : No
Forced                                   : No

Text #2
ID                                       : 5
Format                                   : UTF-8
Codec ID                                 : S_TEXT/UTF8
Codec ID/Info                            : UTF-8 Plain Text
Duration                                 : 1 h 47 min
Bit rate                                 : 0 b/s
Count of elements                        : 10
Stream size                              : 269 Bytes (0%)
Title                                    : Türkçe FORCED - Filmbol.org
Language                                 : Turkish
Default                                  : Yes
Forced                                   : No

Film Detayları


 Terminatör: Kara Kader

 Terminatör: Kara Kader

 Terminatör: Kara Kader


Film Fragmanı


Film Detayları

Bunun için üzgünüz ancak, bu linke sadece premium üyeler erişebilir.

Filmbol Cloud







Konu ile Alakalı Benzer Konular
Konular Yazar Yorumlar Okunma Son Yorum
Filmin Yayınlanma Tarihi: 2021
Yıldırım Gücü (Thunder Force) - 2021 - TR+ORG - FHD - x264 | tt10121392 TheSteeL 0 6 7 saat önce
Son Yorum: TheSteeL
Filmin Yayınlanma Tarihi: 2012
Gerçeğin Peşinde (Man on a Ledge) - 2012 - TR+ORG - FHD - x264 | tt1568338 BroserBros 0 14 10-04-2021, Saat: 20:00
Son Yorum: BroserBros
Filmin Yayınlanma Tarihi: 2006
X-Men: Son Direniş (X-Men: The Last Stand) - 2006 - TR+ORG - FHD - x264 | tt0376994 BroserBros 0 14 10-04-2021, Saat: 19:46
Son Yorum: BroserBros
Filmin Yayınlanma Tarihi: 2003
X-Men 2 (X2: X-Men United) - 2003 - TR+ORG - FHD - x264 | tt0290334 BroserBros 0 13 10-04-2021, Saat: 18:57
Son Yorum: BroserBros
Filmin Yayınlanma Tarihi: 2000
X-Men 1 (X-Men) - 2000 - TR+ORG - FHD - x264 | tt0120903 BroserBros 0 12 10-04-2021, Saat: 18:44
Son Yorum: BroserBros

Hızlı Menü: