⤤ Premium'a Yükselt
Filmbol Forum Film İndir 720P v Terminatör: Kara Kader (Terminator: Dark Fate) - 2019 - TR+ORG - 720P | tt6450804

Filmbol TV kullanıma açıldı. Bu adresten giriş yapabilirsin: Giriş





Terminatör: Kara Kader (Terminator: Dark Fate) - 2019 - TR+ORG - 720P | tt6450804
BroserBros
Terminatör: Kara Kader (Terminator: Dark Fate) - 2019 - TR+ORG - 720P | tt6450804
9
1056
  • Derecelendirme: 0/5 - 0 oy
  • 1
  • 2
  • 3
  • 4
  • 5
Konuyu Okuyanlar:1 Ziyaretçi
Şuan Online!
Filmin Yayınlanma Tarihi: 2019 
WWW
Rapor Et!
Şuan Online!
BroserBros Kurucu Admin
*******
Admin



 Terminatör: Kara Kader




Terminatör: Kara Kader, gelecekten gelen Terminatörlere karşı zorlu bir mücadeleye giren Sarah Connor’ın hikayesini konu ediyor. Sarah Conor’ın Mahşet Günü’nü engellemesinin ve insan ırkının kaderini yeniden belirlemesinin üzerinden yıllar geçmiştir. Dani Ramos, kardeşi ve babasıyla ile birlikte Mexico City’de kendi halinde yaşayan bir kadındır. Ancak gelecekten süper asker özelliklerine sahip olan Rev-9 adındaki yeni bir Terminatör, Dani’yi öldürmek üzere geçmişe gelir. Dani’nin kurtulma şansı, Grace ve Sarah Conor’a bağlıdır. Grace de gelecekten gelen bir süper askerdir. Bu sırada Rev-9, hiçbir şeyi umursamadan hedefine giden yolda karşısına çıkan her şeyi yok ediyordur. Dani, Grace ve Sarah’nın yolu sonunda T-800’e düşecektir. Sarah’nın geçmişi, onların tek umudu olur.

Terminatör: Kara Kader (2019) (Terminator: Dark Fate) | tt6450804 Filmi Imdb'den 153,000 kişi tarafından oylandı ve 6,2 puan aldı. Bu film için editör puanı %70 olarak belirlendi. İyi Seyirler!

Teknik Detaylar

Kod :
General
Unique ID                                : 237315299232285256720756780204008494523 (0xB289439C671EC6E6C3DDC230A73955BB)
Complete name                            : /home/BroserBros/Desktop/2/Terminator.Kara.Kader.2019.720p.BluRay.x264.TR.ENG.Filmbol.mkv
Format                                   : Matroska
Format version                           : Version 4
File size                                : 1.46 GiB
Duration                                 : 2 h 8 min
Overall bit rate                         : 1 637 kb/s
Movie name                               : Terminatör Kara Kader - Terminator Dark Fate - 2019 | Filmbol.org
Encoded date                             : UTC 2021-04-05 17:11:26
Writing application                      : mkvmerge v53.0.0 ('Fool's Gold') 64-bit
Writing library                          : libebml v1.4.1 + libmatroska v1.6.2

Video
ID                                       : 1
Format                                   : AVC
Format/Info                              : Advanced Video Codec
Format profile                           : [email protected]
Format settings                          : CABAC / 4 Ref Frames
Format settings, CABAC                   : Yes
Format settings, Reference frames        : 4 frames
Codec ID                                 : V_MPEG4/ISO/AVC
Duration                                 : 2 h 8 min
Bit rate                                 : 1 100 kb/s
Width                                    : 1 280 pixels
Height                                   : 534 pixels
Display aspect ratio                     : 2.40:1
Original display aspect ratio            : 2.40:1
Frame rate mode                          : Constant
Frame rate                               : 23.976 (24000/1001) FPS
Color space                              : YUV
Chroma subsampling                       : 4:2:0
Bit depth                                : 8 bits
Scan type                                : Progressive
Bits/(Pixel*Frame)                       : 0.067
Stream size                              : 1 008 MiB (67%)
Title                                    : 720P - Filmbol.org
Writing library                          : x264 core 158
Encoding settings                        : cabac=1 / ref=4 / deblock=1:-1:-1 / analyse=0x3:0x133 / me=umh / subme=9 / psy=1 / psy_rd=1.00:0.15 / mixed_ref=1 / me_range=24 / chroma_me=1 / trellis=2 / 8x8dct=1 / cqm=0 / deadzone=21,11 / fast_pskip=0 / chroma_qp_offset=-3 / threads=17 / lookahead_threads=1 / sliced_threads=0 / nr=0 / decimate=1 / interlaced=0 / bluray_compat=0 / constrained_intra=0 / bframes=3 / b_pyramid=2 / b_adapt=2 / b_bias=0 / direct=3 / weightb=1 / open_gop=0 / weightp=2 / keyint=250 / keyint_min=23 / scenecut=40 / intra_refresh=0 / rc_lookahead=60 / rc=2pass / mbtree=1 / bitrate=1100 / ratetol=1.0 / qcomp=0.60 / qpmin=0 / qpmax=69 / qpstep=4 / cplxblur=20.0 / qblur=0.5 / vbv_maxrate=31250 / vbv_bufsize=31250 / nal_hrd=none / filler=0 / ip_ratio=1.40 / aq=1:1.00
Default                                  : Yes
Forced                                   : No

Audio #1
ID                                       : 2
Format                                   : AC-3
Format/Info                              : Audio Coding 3
Commercial name                          : Dolby Digital
Codec ID                                 : A_AC3
Duration                                 : 2 h 8 min
Bit rate mode                            : Constant
Bit rate                                 : 384 kb/s
Channel(s)                               : 6 channels
Channel layout                           : L R C LFE Ls Rs
Sampling rate                            : 48.0 kHz
Frame rate                               : 31.250 FPS (1536 SPF)
Compression mode                         : Lossy
Delay relative to video                  : -43 ms
Stream size                              : 352 MiB (23%)
Title                                    : Türkçe - Filmbol.org
Language                                 : Turkish
Service kind                             : Complete Main
Default                                  : Yes
Forced                                   : No

Audio #2
ID                                       : 3
Format                                   : AAC LC
Format/Info                              : Advanced Audio Codec Low Complexity
Codec ID                                 : A_AAC-2
Duration                                 : 2 h 8 min
Bit rate                                 : 151 kb/s
Channel(s)                               : 2 channels
Channel layout                           : L R
Sampling rate                            : 48.0 kHz
Frame rate                               : 46.875 FPS (1024 SPF)
Compression mode                         : Lossy
Delay relative to video                  : -43 ms
Stream size                              : 138 MiB (9%)
Title                                    : Orjinal Dil - Filmbol.org
Language                                 : English
Default                                  : No
Forced                                   : No

Text #1
ID                                       : 4
Format                                   : UTF-8
Codec ID                                 : S_TEXT/UTF8
Codec ID/Info                            : UTF-8 Plain Text
Duration                                 : 2 h 7 min
Bit rate                                 : 31 b/s
Count of elements                        : 1247
Stream size                              : 29.7 KiB (0%)
Title                                    : Türkçe - Filmbol.org
Language                                 : Turkish
Default                                  : Yes
Forced                                   : No

Text #2
ID                                       : 5
Format                                   : UTF-8
Codec ID                                 : S_TEXT/UTF8
Codec ID/Info                            : UTF-8 Plain Text
Duration                                 : 1 h 47 min
Bit rate                                 : 0 b/s
Count of elements                        : 10
Stream size                              : 269 Bytes (0%)
Title                                    : Türkçe FORCED - Filmbol.org
Language                                 : Turkish
Default                                  : No
Forced                                   : No

Film Detayları


 Terminatör: Kara Kader

 Terminatör: Kara Kader

 Terminatör: Kara Kader


Film Fragmanı


Film İndir


Rar Şifresi: filmbol.org


Uptobox ile indir

1Fichier ile indir

1Fichier'den İndiremiyor musun? Tıklayın!












Şuan Offine!
Rapor Et!
Şuan Offine!
Omeryuksel256 Uzman Üye
**
Uzman Üye
  • Konular0
  • Mesajlar14
  • Rep puanı 0
good yani iyi
Şuan Offine!
Rapor Et!
Şuan Offine!
HBardakcı Uzman Üye
**
Uzman Üye
  • Konular0
  • Mesajlar7
  • Rep puanı 0
Thanks
Şuan Offine!
Rapor Et!
Şuan Offine!
Grazes Üye
*
Üye
  • Konular0
  • Mesajlar5
  • Rep puanı 0
kaliteli
Şuan Online!
Rapor Et!
Şuan Online!
BroserBros Kurucu Admin
*******
Admin
06.04.2021 Yönetici Notu:

Kırık linkler kontrol edildi, kaldırıldı ve yenilendi. Tüm linkler tamamen çalışır durumda.
Şuan Offine!
Rapor Et!
Şuan Offine!
myzrail Üye
*
Üye
  • Konular0
  • Mesajlar387
  • Rep puanı 0
güzel
Şuan Offine!
Rapor Et!
Şuan Offine!
Metemre2010 Üye
*
Üye
  • Konular0
  • Mesajlar57
  • Rep puanı 0
Teşekkürler.
Şuan Offine!
Rapor Et!
Şuan Offine!
Alish Üye
*
Üye
  • Konular0
  • Mesajlar203
  • Rep puanı 0
Teşekkürler.
Şuan Online!
Rapor Et!
Şuan Online!
avis Üye
*
Üye
  • Konular0
  • Mesajlar29
  • Rep puanı 0
Teşekkürler.
Şuan Online!
Rapor Et!
Şuan Online!
mai21 Üye
*
Üye
  • Konular0
  • Mesajlar47
  • Rep puanı 0
Teşekkürler.


Hızlı Menü: