Filmbol Forum Film İndir 720P v Sınır Yok (Hasta el cielo) - 2020 - TR+ORG - 720P | tt10978398
Bildirimi Kapat
Üyelik alımları açıldı.


Bildirimi Kapat
Mega linklerinin şikayet edilmemesi için global erişime kapatıp sadece yorum yapanlara açıyoruz. Bu linkleri gizleme işlemini mecburen yapıyoruz ve yorum yapmanızın siteye değil size faydası vardır. Teşekkürler yazmayı çok görüp, Random/Spam/Anlamsız mesajlar atarak forumu kirletip Mega linklerini açmaya çalışan kullanıcılara süresiz ban atacağız.

Premium Üyelik Al

Sınır Yok (Hasta el cielo) - 2020 - TR+ORG - 720P | tt10978398
TheSteeL
Sınır Yok (Hasta el cielo) - 2020 - TR+ORG - 720P | tt10978398
0
106
  • Derecelendirme: 0/5 - 0 oy
  • 1
  • 2
  • 3
  • 4
  • 5
Konuyu Okuyanlar:2 Ziyaretçi
Şuan Online!
Filmin Yayınlanma Tarihi: 2020 
WWW
Şuan Online!
TheSteeL Süper Moderatör
*****
Süper Moderatör



 Sınır Yok



Angel, güzel bir hayatı olan teknisyen, bir düzey kariyere sahip yetenekli birisidir. Ancak Angel'in hayatı tanıştığı bir kız ile bambaşka bir hal almaya başlar. Bir barda tanıştığı Estrella isimli bir kadın ile sohbet etmeye başlar. Fakat Estrella'nın sıkıntılı bir sevgilisi olduğunu bilmemektedir. Bunu öğrendiğinde çok geçtir ve Estrella'nın sevgilisi Poli onu bir güzel döver. Bunu kendine yediremese de Poli onu sevmeye başlar. Onda özel yetenekler olduğunu sezen Poli, zamanla yaptığı pis işlere dahil etmek ister. Sıradan hayatından sıkılan Angel teklifi kabul etse de, bu onun için yeni bir suçlu hayatının başlangıcıdır...

Sınır Yok (2020) (Hasta el cielo) | tt10978398 Filmi Imdb'den 750 kişi tarafından oylandı ve 5,8 puan aldı. Bu film için editör puanı %60 olarak belirlendi. İyi Seyirler!

Teknik Detaylar

Kod :
General
Unique ID                                : 323722336568003929905387366906591020898 (0xF38AA77771DAE1A6F2E35511773D8762)
Complete name                            : /home/TheSteel/Desktop/2/Sınır.Yok.2020.720p.BluRay.x264.TR.SP.Filmbol.mkv
Format                                   : Matroska
Format version                           : Version 4
File size                                : 1.47 GiB
Duration                                 : 2 h 1 min
Overall bit rate                         : 1 728 kb/s
Movie name                               : Hasta el cielo - Sınır Yok - 2020 | Filmbol.org
Encoded date                             : UTC 2021-04-04 17:22:57
Writing application                      : mkvmerge v31.0.0 ('Dolores In A Shoestand') 64-bit
Writing library                          : libebml v1.3.6 + libmatroska v1.4.9

Video
ID                                       : 1
Format                                   : AVC
Format/Info                              : Advanced Video Codec
Format profile                           : [email protected]
Format settings                          : CABAC / 4 Ref Frames
Format settings, CABAC                   : Yes
Format settings, Reference frames        : 4 frames
Codec ID                                 : V_MPEG4/ISO/AVC
Duration                                 : 2 h 1 min
Bit rate                                 : 1 150 kb/s
Width                                    : 1 280 pixels
Height                                   : 534 pixels
Display aspect ratio                     : 2.40:1
Original display aspect ratio            : 2.40:1
Frame rate mode                          : Constant
Frame rate                               : 24.000 FPS
Color space                              : YUV
Chroma subsampling                       : 4:2:0
Bit depth                                : 8 bits
Scan type                                : Progressive
Bits/(Pixel*Frame)                       : 0.070
Stream size                              : 1 003 MiB (67%)
Title                                    : Hasta el cielo - Sınır Yok - 2020 | Filmbol.org
Writing library                          : x264 core 159
Encoding settings                        : cabac=1 / ref=4 / deblock=1:-1:-1 / analyse=0x3:0x133 / me=umh / subme=9 / psy=1 / psy_rd=1.00:0.15 / mixed_ref=1 / me_range=24 / chroma_me=1 / trellis=2 / 8x8dct=1 / cqm=0 / deadzone=21,11 / fast_pskip=0 / chroma_qp_offset=-3 / threads=17 / lookahead_threads=1 / sliced_threads=0 / nr=0 / decimate=1 / interlaced=0 / bluray_compat=0 / constrained_intra=0 / bframes=3 / b_pyramid=2 / b_adapt=2 / b_bias=0 / direct=3 / weightb=1 / open_gop=0 / weightp=2 / keyint=250 / keyint_min=23 / scenecut=40 / intra_refresh=0 / rc_lookahead=60 / rc=2pass / mbtree=1 / bitrate=1150 / ratetol=1.0 / qcomp=0.60 / qpmin=0 / qpmax=69 / qpstep=4 / cplxblur=20.0 / qblur=0.5 / vbv_maxrate=31250 / vbv_bufsize=31250 / nal_hrd=none / filler=0 / ip_ratio=1.40 / aq=1:1.00
Default                                  : Yes
Forced                                   : No

Audio #1
ID                                       : 2
Format                                   : AC-3
Format/Info                              : Audio Coding 3
Commercial name                          : Dolby Digital
Codec ID                                 : A_AC3
Duration                                 : 2 h 1 min
Bit rate mode                            : Constant
Bit rate                                 : 384 kb/s
Channel(s)                               : 6 channels
Channel layout                           : L R C LFE Ls Rs
Sampling rate                            : 48.0 kHz
Frame rate                               : 31.250 FPS (1536 SPF)
Compression mode                         : Lossy
Stream size                              : 335 MiB (22%)
Title                                    : Hasta el cielo - Sınır Yok - 2020 | Filmbol.org
Language                                 : Turkish
Service kind                             : Complete Main
Default                                  : Yes
Forced                                   : No

Audio #2
ID                                       : 3
Format                                   : AC-3
Format/Info                              : Audio Coding 3
Commercial name                          : Dolby Digital
Codec ID                                 : A_AC3
Duration                                 : 2 h 1 min
Bit rate mode                            : Constant
Bit rate                                 : 192 kb/s
Channel(s)                               : 2 channels
Channel layout                           : L R
Sampling rate                            : 48.0 kHz
Frame rate                               : 31.250 FPS (1536 SPF)
Compression mode                         : Lossy
Stream size                              : 168 MiB (11%)
Title                                    : Hasta el cielo - Sınır Yok - 2020 | Filmbol.org
Language                                 : Spanish
Service kind                             : Complete Main
Default                                  : No
Forced                                   : No

Text #1
ID                                       : 4
Format                                   : UTF-8
Codec ID                                 : S_TEXT/UTF8
Codec ID/Info                            : UTF-8 Plain Text
Duration                                 : 2 h 0 min
Bit rate                                 : 4 b/s
Count of elements                        : 152
Stream size                              : 4.28 KiB (0%)
Title                                    : Hasta el cielo - Sınır Yok - 2020 | Filmbol.org
Language                                 : Turkish
Default                                  : Yes
Forced                                   : Yes

Text #2
ID                                       : 5
Format                                   : UTF-8
Codec ID                                 : S_TEXT/UTF8
Codec ID/Info                            : UTF-8 Plain Text
Duration                                 : 2 h 0 min
Bit rate                                 : 51 b/s
Count of elements                        : 1587
Stream size                              : 45.8 KiB (0%)
Title                                    : Hasta el cielo - Sınır Yok - 2020 | Filmbol.org
Language                                 : Turkish
Default                                  : No
Forced                                   : No

Film Detayları


 Sınır Yok

 Sınır Yok

 Sınır Yok


Film Fragmanı


Film Detayları

Uptobox ile indir

1Fichier ile indir

1Fichier'den İndiremiyor musun? Tıklayın!


Mega linki şuan da gizli. Kullanıma açmak için konuya yorum yapın ve ardından sayfayı yenileyin.

Mega


Bunun için üzgünüz ancak, bu linke sadece premium üyeler erişebilir.

Filmbol Cloud







Hızlı Menü: