Filmbol Forum Film İndir BRRip XviD v Sınır Yok (Hasta el cielo) - 2020 - TR - BRRip XviD | tt10978398
Bildirimi Kapat
Üyelik alımları açıldı.


Bildirimi Kapat
Mega linklerinin şikayet edilmemesi için global erişime kapatıp sadece yorum yapanlara açıyoruz. Bu linkleri gizleme işlemini mecburen yapıyoruz ve yorum yapmanızın siteye değil size faydası vardır. Teşekkürler yazmayı çok görüp, Random/Spam/Anlamsız mesajlar atarak forumu kirletip Mega linklerini açmaya çalışan kullanıcılara süresiz ban atacağız.

Premium Üyelik Al

Sınır Yok (Hasta el cielo) - 2020 - TR - BRRip XviD | tt10978398
TheSteeL
Sınır Yok (Hasta el cielo) - 2020 - TR - BRRip XviD | tt10978398
0
76
  • Derecelendirme: 0/5 - 0 oy
  • 1
  • 2
  • 3
  • 4
  • 5
Konuyu Okuyanlar:1 Ziyaretçi
Şuan Online!
Filmin Yayınlanma Tarihi: 2020 
WWW
Şuan Online!
TheSteeL Süper Moderatör
*****
Süper Moderatör



 Sınır Yok



Angel, güzel bir hayatı olan teknisyen, bir düzey kariyere sahip yetenekli birisidir. Ancak Angel'in hayatı tanıştığı bir kız ile bambaşka bir hal almaya başlar. Bir barda tanıştığı Estrella isimli bir kadın ile sohbet etmeye başlar. Fakat Estrella'nın sıkıntılı bir sevgilisi olduğunu bilmemektedir. Bunu öğrendiğinde çok geçtir ve Estrella'nın sevgilisi Poli onu bir güzel döver. Bunu kendine yediremese de Poli onu sevmeye başlar. Onda özel yetenekler olduğunu sezen Poli, zamanla yaptığı pis işlere dahil etmek ister. Sıradan hayatından sıkılan Angel teklifi kabul etse de, bu onun için yeni bir suçlu hayatının başlangıcıdır...

Sınır Yok (2020) (Hasta el cielo) | tt10978398 Filmi Imdb'den 750 kişi tarafından oylandı ve 5,8 puan aldı. Bu film için editör puanı %60 olarak belirlendi. İyi Seyirler!

Teknik Detaylar

Kod :
General
Unique ID                                : 253283682953213147428571645139292106187 (0xBE8CA9B6984DB475D3AAAE938725ADCB)
Complete name                            : /home/TheSteel/Desktop/2/Sınır.Yok.2020.HDRip.XViD.TR.Filmbol.avi
Format                                   : Matroska
Format version                           : Version 4
File size                                : 1.47 GiB
Duration                                 : 2 h 1 min
Overall bit rate                         : 1 720 kb/s
Movie name                               : Hasta el cielo - Sınır Yok - 2020 | Filmbol.org
Encoded date                             : UTC 2021-04-04 17:23:56
Writing application                      : mkvmerge v31.0.0 ('Dolores In A Shoestand') 64-bit
Writing library                          : libebml v1.3.6 + libmatroska v1.4.9
FileExtension_Invalid                    : mkv mk3d mka mks

Video
ID                                       : 1
Format                                   : MPEG-4 Visual
Format profile                           : [email protected]
Format settings, BVOP                    : No
Format settings, QPel                    : No
Format settings, GMC                     : No warppoints
Format settings, Matrix                  : Default (H.263)
Codec ID                                 : V_MS/VFW/FOURCC / XVID
Codec ID/Hint                            : XviD
Duration                                 : 2 h 1 min
Bit rate                                 : 1 591 kb/s
Width                                    : 720 pixels
Height                                   : 302 pixels
Display aspect ratio                     : 2.40:1
Frame rate mode                          : Constant
Frame rate                               : 24.000 FPS
Color space                              : YUV
Chroma subsampling                       : 4:2:0
Bit depth                                : 8 bits
Scan type                                : Progressive
Compression mode                         : Lossy
Bits/(Pixel*Frame)                       : 0.305
Stream size                              : 1.36 GiB (92%)
Title                                    : Hasta el cielo - Sınır Yok - 2020 | Filmbol.org
Writing library                          : Lavc58.35.100
Default                                  : Yes
Forced                                   : No

Audio
ID                                       : 2
Format                                   : MPEG Audio
Format version                           : Version 1
Format profile                           : Layer 3
Format settings                          : Joint stereo / MS Stereo
Codec ID                                 : A_MPEG/L3
Codec ID/Hint                            : MP3
Duration                                 : 2 h 1 min
Bit rate mode                            : Constant
Bit rate                                 : 128 kb/s
Channel(s)                               : 2 channels
Sampling rate                            : 48.0 kHz
Frame rate                               : 41.667 FPS (1152 SPF)
Compression mode                         : Lossy
Stream size                              : 112 MiB (7%)
Title                                    : Hasta el cielo - Sınır Yok - 2020 | Filmbol.org
Default                                  : Yes
Forced                                   : No

Film Detayları


 Sınır Yok

 Sınır Yok

 Sınır Yok


Film Fragmanı


Film Detayları


Uptobox ile indir

1Fichier ile indir

1Fichier'den İndiremiyor musun? Tıklayın!


Mega linki şuan da gizli. Kullanıma açmak için konuya yorum yapın ve ardından sayfayı yenileyin.

Mega


Bunun için üzgünüz ancak, bu linke sadece premium üyeler erişebilir.

Filmbol Cloud







Hızlı Menü: