Filmbol Forum Film İndir FHD - FULL HD v Kent Kovboyu (Concrete Cowboy) - 2020 - TR+ORG - FHD - x264 | tt8846176
Bildirimi Kapat
Üyelik alımları açıldı.


Bildirimi Kapat
Mega linklerinin şikayet edilmemesi için global erişime kapatıp sadece yorum yapanlara açıyoruz. Bu linkleri gizleme işlemini mecburen yapıyoruz ve yorum yapmanızın siteye değil size faydası vardır. Teşekkürler yazmayı çok görüp, Random/Spam/Anlamsız mesajlar atarak forumu kirletip Mega linklerini açmaya çalışan kullanıcılara süresiz ban atacağız.

Premium Üyelik Al

Kent Kovboyu (Concrete Cowboy) - 2020 - TR+ORG - FHD - x264 | tt8846176
TheSteeL
Kent Kovboyu (Concrete Cowboy) - 2020 - TR+ORG - FHD - x264 | tt8846176
0
67
  • Derecelendirme: 0/5 - 0 oy
  • 1
  • 2
  • 3
  • 4
  • 5
Konuyu Okuyanlar:2 Ziyaretçi
Şuan Online!
Filmin Yayınlanma Tarihi: 2020 
WWW
Şuan Online!
TheSteeL Süper Moderatör
*****
Süper Moderatör



 Kent Kovboyu



Geçmişten günümüze insanlar ile atlar arasında her zaman özel bir bağ olmuştur. Hatta tarihte bu bağı artırıp atı ile uyuyanlar bile var. Film yine at sevgisi üzerine hayatını değiştirmeyi başarabilen bir genç'i konu alıyor. Cole'un hayatı hiç yolunda değildir. Annesi ile babası ayrılmış, Cole ise babası ile kalmaya mecbur kalmıştır. Bu durumdan hiç memnun olmayan Cole strese girerek farklı şeyler yapmaya başlar. Ancak bir gün gittiği at çiftliğinde tanıştığı atlar ile hayatı bambaşka bir şekilde güzel bir hal almaya başlar...

Kent Kovboyu (2020) (Concrete Cowboy) | tt8846176 Filmi Imdb'den 1300 kişi tarafından oylandı ve 6,0 puan aldı. Bu film için editör puanı %60 olarak belirlendi. İyi Seyirler!

Teknik Detaylar

Kod :
General
Unique ID                                : 211534393907100298125528707575080215864 (0x9F240AD7682CAB75D37B791000CAE538)
Complete name                            : /home/TheSteel/Desktop/1/Kent.Kovboyu.2020.FHD.BluRay.x264.TR.ENG.Filmbol.mkv
Format                                   : Matroska
Format version                           : Version 4
File size                                : 6.53 GiB
Duration                                 : 1 h 51 min
Overall bit rate mode                    : Variable
Overall bit rate                         : 8 356 kb/s
Movie name                               : Concrete Cowboy - Kent Kovboyu - 2020 | Filmbol.org
Encoded date                             : UTC 2021-04-04 17:10:44
Writing application                      : mkvmerge v31.0.0 ('Dolores In A Shoestand') 64-bit
Writing library                          : libebml v1.3.6 + libmatroska v1.4.9

Video
ID                                       : 1
Format                                   : AVC
Format/Info                              : Advanced Video Codec
Format profile                           : [email protected]
Format settings                          : CABAC / 4 Ref Frames
Format settings, CABAC                   : Yes
Format settings, Reference frames        : 4 frames
Codec ID                                 : V_MPEG4/ISO/AVC
Duration                                 : 1 h 51 min
Bit rate mode                            : Variable
Bit rate                                 : 7 110 kb/s
Maximum bit rate                         : 20.0 Mb/s
Width                                    : 1 920 pixels
Height                                   : 1 080 pixels
Display aspect ratio                     : 16:9
Frame rate mode                          : Constant
Frame rate                               : 24.000 FPS
Color space                              : YUV
Chroma subsampling                       : 4:2:0
Bit depth                                : 8 bits
Scan type                                : Progressive
Bits/(Pixel*Frame)                       : 0.143
Stream size                              : 5.52 GiB (85%)
Title                                    : Concrete Cowboy - Kent Kovboyu - 2020 | Filmbol.org
Writing library                          : x264 core 148 r2722 1b0121b
Encoding settings                        : cabac=1 / ref=4 / deblock=1:0:0 / analyse=0x3:0x111 / me=umh / subme=10 / psy=1 / psy_rd=1.00:0.00 / mixed_ref=1 / me_range=120 / chroma_me=1 / trellis=2 / 8x8dct=1 / cqm=0 / deadzone=21,11 / fast_pskip=1 / chroma_qp_offset=-2 / threads=8 / lookahead_threads=2 / sliced_threads=0 / nr=0 / decimate=1 / interlaced=0 / bluray_compat=0 / stitchable=1 / constrained_intra=0 / bframes=16 / b_pyramid=2 / b_adapt=2 / b_bias=0 / direct=3 / weightb=1 / open_gop=0 / weightp=2 / keyint=240 / keyint_min=121 / scenecut=0 / intra_refresh=0 / rc_lookahead=240 / rc=crf / mbtree=1 / crf=16.0 / qcomp=0.50 / qpmin=6 / qpmax=51 / qpstep=4 / vbv_maxrate=20000 / vbv_bufsize=25000 / crf_max=0.0 / nal_hrd=vbr / filler=0 / ip_ratio=1.40 / aq=1:0.80
Language                                 : English
Default                                  : Yes
Forced                                   : No

Audio #1
ID                                       : 2
Format                                   : AC-3
Format/Info                              : Audio Coding 3
Commercial name                          : Dolby Digital
Codec ID                                 : A_AC3
Duration                                 : 1 h 51 min
Bit rate mode                            : Constant
Bit rate                                 : 640 kb/s
Channel(s)                               : 6 channels
Channel layout                           : L R C LFE Ls Rs
Sampling rate                            : 48.0 kHz
Frame rate                               : 31.250 FPS (1536 SPF)
Compression mode                         : Lossy
Stream size                              : 512 MiB (8%)
Title                                    : Concrete Cowboy - Kent Kovboyu - 2020 | Filmbol.org
Language                                 : Turkish
Service kind                             : Complete Main
Default                                  : Yes
Forced                                   : No

Audio #2
ID                                       : 3
Format                                   : AC-3
Format/Info                              : Audio Coding 3
Commercial name                          : Dolby Digital
Codec ID                                 : A_AC3
Duration                                 : 1 h 51 min
Bit rate mode                            : Constant
Bit rate                                 : 640 kb/s
Channel(s)                               : 6 channels
Channel layout                           : L R C LFE Ls Rs
Sampling rate                            : 48.0 kHz
Frame rate                               : 31.250 FPS (1536 SPF)
Compression mode                         : Lossy
Stream size                              : 512 MiB (8%)
Title                                    : Concrete Cowboy - Kent Kovboyu - 2020 | Filmbol.org
Language                                 : English
Service kind                             : Complete Main
Default                                  : No
Forced                                   : No

Text #1
ID                                       : 4
Format                                   : UTF-8
Codec ID                                 : S_TEXT/UTF8
Codec ID/Info                            : UTF-8 Plain Text
Duration                                 : 1 h 50 min
Bit rate                                 : 2 b/s
Count of elements                        : 41
Stream size                              : 1.73 KiB (0%)
Title                                    : Concrete Cowboy - Kent Kovboyu - 2020 | Filmbol.org
Language                                 : Turkish
Default                                  : Yes
Forced                                   : Yes

Text #2
ID                                       : 5
Format                                   : UTF-8
Codec ID                                 : S_TEXT/UTF8
Codec ID/Info                            : UTF-8 Plain Text
Duration                                 : 1 h 50 min
Bit rate                                 : 41 b/s
Count of elements                        : 1112
Stream size                              : 33.2 KiB (0%)
Title                                    : Concrete Cowboy - Kent Kovboyu - 2020 | Filmbol.org
Language                                 : Turkish
Default                                  : No
Forced                                   : No

Film Detayları


 Kent Kovboyu

 Kent Kovboyu

 Kent Kovboyu


Film Fragmanı


Film Detayları

Mega linki şuan da gizli. Kullanıma açmak için konuya yorum yapın ve ardından sayfayı yenileyin.

Mega


Bunun için üzgünüz ancak, bu linke sadece premium üyeler erişebilir.

Filmbol Cloud







Hızlı Menü: