Filmbol Forum Film İndir BRRip XviD v Kent Kovboyu (Concrete Cowboy) - 2020 - TR - BRRip XviD | tt8846176
Bildirimi Kapat
Server kaynaklı problemden dolayı ciddi bir sorun yaşadık. Şuanda forum ve portal aktif halde ancak bazı problemler hala devam ediyor. Problem gördüğünüz yerleri bize bildirmeniz çok önemli. Teşekkürler.

Bildirimi Kapat
Merhaba , site giderlerini bir nebze olsun karşılamak adına link kısaltma servisleri kullanmaya başladık. İndirme linkleri sizi ouo.io adresinde yönlendirecek, 3 saniye geçtikten sonra Get Link butonuna tıklayarak linke ulaşacaksınız. Premium üyeler bu durumdan etkilenmeyecektir.


Premium Üyelik Al

Kent Kovboyu (Concrete Cowboy) - 2020 - TR - BRRip XviD | tt8846176
TheSteeL
Kent Kovboyu (Concrete Cowboy) - 2020 - TR - BRRip XviD | tt8846176
0
95
  • Derecelendirme: 0/5 - 0 oy
  • 1
  • 2
  • 3
  • 4
  • 5
Konuyu Okuyanlar:1 Ziyaretçi
Şuan Online!
Filmin Yayınlanma Tarihi: 2020 
Şuan Online!
TheSteeL Chief Executive Officer
******
CEO



 Kent Kovboyu



Geçmişten günümüze insanlar ile atlar arasında her zaman özel bir bağ olmuştur. Hatta tarihte bu bağı artırıp atı ile uyuyanlar bile var. Film yine at sevgisi üzerine hayatını değiştirmeyi başarabilen bir genç'i konu alıyor. Cole'un hayatı hiç yolunda değildir. Annesi ile babası ayrılmış, Cole ise babası ile kalmaya mecbur kalmıştır. Bu durumdan hiç memnun olmayan Cole strese girerek farklı şeyler yapmaya başlar. Ancak bir gün gittiği at çiftliğinde tanıştığı atlar ile hayatı bambaşka bir şekilde güzel bir hal almaya başlar...

Kent Kovboyu (2020) (Concrete Cowboy) | tt8846176 Filmi Imdb'den 1300 kişi tarafından oylandı ve 6,0 puan aldı. Bu film için editör puanı %60 olarak belirlendi. İyi Seyirler!

Teknik Detaylar

Kod :
General
Unique ID                                : 274369925918295203397956388079517486999 (0xCE69B9C201584022A4CC0695F902CF97)
Complete name                            : /home/TheSteel/Desktop/1/Kent.Kovboyu.2020.HDRip.XViD.TR.Filmbol.avi
Format                                  : Matroska
Format version                          : Version 4
File size                                : 1.13 GiB
Duration                                : 1 h 51 min
Overall bit rate                        : 1 450 kb/s
Movie name                              : Concrete Cowboy - Kent Kovboyu - 2020 | Filmbol.org
Encoded date                            : UTC 2021-04-04 17:12:16
Writing application                      : mkvmerge v31.0.0 ('Dolores In A Shoestand') 64-bit
Writing library                          : libebml v1.3.6 + libmatroska v1.4.9
FileExtension_Invalid                    : mkv mk3d mka mks

Video
ID                                      : 1
Format                                  : MPEG-4 Visual
Format profile                          : [email protected]
Format settings, BVOP                    : No
Format settings, QPel                    : No
Format settings, GMC                    : No warppoints
Format settings, Matrix                  : Default (H.263)
Codec ID                                : V_MS/VFW/FOURCC / XVID
Codec ID/Hint                            : XviD
Duration                                : 1 h 51 min
Bit rate                                : 1 320 kb/s
Width                                    : 720 pixels
Height                                  : 302 pixels
Display aspect ratio                    : 2.40:1
Frame rate mode                          : Constant
Frame rate                              : 24.000 FPS
Color space                              : YUV
Chroma subsampling                      : 4:2:0
Bit depth                                : 8 bits
Scan type                                : Progressive
Compression mode                        : Lossy
Bits/(Pixel*Frame)                      : 0.253
Stream size                              : 1.03 GiB (91%)
Title                                    : Concrete Cowboy - Kent Kovboyu - 2020 | Filmbol.org
Writing library                          : Lavc58.35.100
Default                                  : Yes
Forced                                  : No

Audio
ID                                      : 2
Format                                  : MPEG Audio
Format version                          : Version 1
Format profile                          : Layer 3
Format settings                          : Joint stereo / MS Stereo
Codec ID                                : A_MPEG/L3
Codec ID/Hint                            : MP3
Duration                                : 1 h 51 min
Bit rate mode                            : Constant
Bit rate                                : 128 kb/s
Channel(s)                              : 2 channels
Sampling rate                            : 48.0 kHz
Frame rate                              : 41.667 FPS (1152 SPF)
Compression mode                        : Lossy
Stream size                              : 102 MiB (9%)
Title                                    : Concrete Cowboy - Kent Kovboyu - 2020 | Filmbol.org
Default                                  : Yes
Forced                                  : No

Film Detayları


 Kent Kovboyu

 Kent Kovboyu

 Kent Kovboyu


Film Fragmanı


Film İndir



Zip Şifresi: filmbol.org Aşağıdaki butona tıklayarak kopyalabilirsiniz.



Uptobox ile indir

1Fichier ile indir

1Fichier'den İndiremiyor musun? Tıklayın!





Filmbol Cloud

Bunun için üzgünüz ancak, bu linke sadece premium üyeler erişebilir.




WWW


Hızlı Menü: