Filmbol Forum Film İndir FHD - FULL HD v Arkadaş Oyunları (Buddy Games) - 2019 - TR+ORG - FHD - x264 | tt7070818
Bildirimi Kapat
Server kaynaklı problemden dolayı ciddi bir sorun yaşadık. Şuanda forum ve portal aktif halde ancak bazı problemler hala devam ediyor. Problem gördüğünüz yerleri bize bildirmeniz çok önemli. Teşekkürler.

Bildirimi Kapat
Merhaba , site giderlerini bir nebze olsun karşılamak adına link kısaltma servisleri kullanmaya başladık. İndirme linkleri sizi ouo.io adresinde yönlendirecek, 3 saniye geçtikten sonra Get Link butonuna tıklayarak linke ulaşacaksınız. Premium üyeler bu durumdan etkilenmeyecektir.


Premium Üyelik Al

Arkadaş Oyunları (Buddy Games) - 2019 - TR+ORG - FHD - x264 | tt7070818
TheSteeL
Arkadaş Oyunları (Buddy Games) - 2019 - TR+ORG - FHD - x264 | tt7070818
0
101
  • Derecelendirme: 0/5 - 0 oy
  • 1
  • 2
  • 3
  • 4
  • 5
Konuyu Okuyanlar:1 Ziyaretçi
Şuan Online!
Filmin Yayınlanma Tarihi: 2019 
Şuan Online!
TheSteeL Chief Executive Officer
******
CEO


 Arkadaş Oyunları



Uzun zaman önce çok iyi arkadaş olan altı kişi, zamanla ayrılıkların yaşanması ile birbirlerinden soğumaya başlarlar. Bunun sonucunda daha az görüşmeye başlar ve gitgide araları açılır. Fakat bir zaman sonra onları bir araya getirecek bir şey doğar. The Buddy Games isminde bir oyun piyasaya sürülür ve katılmak için altı kişiye gerek vardır. Bu yüzden arkadaşlar birbirlerini tekrar hatırlar ve bu biraz saçma biraz eğlenceli ve 150 Bin dolar ödüllü oyun için bir araya gelirler...

Arkadaş Oyunları (2019) (Buddy Games) | tt7070818 Filmi Imdb'den 3000 kişi tarafından oylandı ve 4,9 puan aldı. Bu film için editör puanı %55 olarak belirlendi. İyi Seyirler!

Teknik Detaylar

Kod :
General
Unique ID                                : 126747815768458580457403565800973533503 (0x5F5ABDCAE907DE6503D750A1308A013F)
Complete name                            : /home/TheSteel/Desktop/2/Arkadaş.Oyunları.2019.FHD.WEB-DL.x264.TR.ENG.Filmbol.mkv
Format                                   : Matroska
Format version                           : Version 4
File size                                : 3.53 GiB
Duration                                 : 1 h 36 min
Overall bit rate                         : 5 227 kb/s
Movie name                               : Buddy Games - Arkadaş Oyunları - 2019 | Filmbol.org
Encoded date                             : UTC 2021-04-03 18:25:14
Writing application                      : mkvmerge v31.0.0 ('Dolores In A Shoestand') 64-bit
Writing library                          : libebml v1.3.6 + libmatroska v1.4.9

Video
ID                                       : 1
Format                                   : AVC
Format/Info                              : Advanced Video Codec
Format profile                           : [email protected]
Format settings                          : CABAC / 5 Ref Frames
Format settings, CABAC                   : Yes
Format settings, Reference frames        : 5 frames
Codec ID                                 : V_MPEG4/ISO/AVC
Duration                                 : 1 h 36 min
Bit rate                                 : 4 459 kb/s
Width                                    : 1 916 pixels
Height                                   : 800 pixels
Display aspect ratio                     : 2.40:1
Frame rate mode                          : Constant
Frame rate                               : 23.976 (24000/1001) FPS
Color space                              : YUV
Chroma subsampling                       : 4:2:0
Bit depth                                : 8 bits
Scan type                                : Progressive
Bits/(Pixel*Frame)                       : 0.121
Stream size                              : 3.01 GiB (85%)
Title                                    : Buddy Games - Arkadaş Oyunları - 2019 | Filmbol.org
Language                                 : English
Default                                  : Yes
Forced                                   : No
Color range                              : Limited
Color primaries                          : BT.709
Transfer characteristics                 : BT.709
Matrix coefficients                      : BT.709

Audio #1
ID                                       : 2
Format                                   : AC-3
Format/Info                              : Audio Coding 3
Commercial name                          : Dolby Digital
Codec ID                                 : A_AC3
Duration                                 : 1 h 36 min
Bit rate mode                            : Constant
Bit rate                                 : 384 kb/s
Channel(s)                               : 6 channels
Channel layout                           : L R C LFE Ls Rs
Sampling rate                            : 48.0 kHz
Frame rate                               : 31.250 FPS (1536 SPF)
Compression mode                         : Lossy
Stream size                              : 264 MiB (7%)
Title                                    : Buddy Games - Arkadaş Oyunları - 2019 | Filmbol.org
Language                                 : Turkish
Service kind                             : Complete Main
Default                                  : Yes
Forced                                   : No

Audio #2
ID                                       : 3
Format                                   : AC-3
Format/Info                              : Audio Coding 3
Commercial name                          : Dolby Digital
Codec ID                                 : A_AC3
Duration                                 : 1 h 36 min
Bit rate mode                            : Constant
Bit rate                                 : 384 kb/s
Channel(s)                               : 6 channels
Channel layout                           : L R C LFE Ls Rs
Sampling rate                            : 48.0 kHz
Frame rate                               : 31.250 FPS (1536 SPF)
Compression mode                         : Lossy
Stream size                              : 264 MiB (7%)
Title                                    : Buddy Games - Arkadaş Oyunları - 2019 | Filmbol.org
Language                                 : English
Service kind                             : Complete Main
Default                                  : No
Forced                                   : No

Text #1
ID                                       : 4
Format                                   : UTF-8
Codec ID                                 : S_TEXT/UTF8
Codec ID/Info                            : UTF-8 Plain Text
Duration                                 : 1 h 33 min
Bit rate                                 : 0 b/s
Count of elements                        : 10
Stream size                              : 198 Bytes (0%)
Title                                    : Buddy Games - Arkadaş Oyunları - 2019 | Filmbol.org
Language                                 : Turkish
Default                                  : Yes
Forced                                   : Yes

Text #2
ID                                       : 5
Format                                   : UTF-8
Codec ID                                 : S_TEXT/UTF8
Codec ID/Info                            : UTF-8 Plain Text
Duration                                 : 1 h 35 min
Bit rate                                 : 83 b/s
Count of elements                        : 1729
Stream size                              : 58.9 KiB (0%)
Title                                    : Buddy Games - Arkadaş Oyunları - 2019 | Filmbol.org
Language                                 : Turkish
Default                                  : No
Forced                                   : No

Film Detayları


 Arkadaş Oyunları

 Arkadaş Oyunları

 Arkadaş Oyunları


Film Fragmanı


Film İndir



Zip Şifresi: filmbol.org Aşağıdaki butona tıklayarak kopyalabilirsiniz.





Filmbol Cloud

Bunun için üzgünüz ancak, bu linke sadece premium üyeler erişebilir.




WWW


Hızlı Menü: