Filmbol Forum Film İndir BRRip XviD v Arkadaş Oyunları (Buddy Games) - 2019 - TR - BRRip XviD | tt7070818
Bildirimi Kapat
Server kaynaklı problemden dolayı ciddi bir sorun yaşadık. Şuanda forum ve portal aktif halde ancak bazı problemler hala devam ediyor. Problem gördüğünüz yerleri bize bildirmeniz çok önemli. Teşekkürler.

Bildirimi Kapat
Merhaba , site giderlerini bir nebze olsun karşılamak adına link kısaltma servisleri kullanmaya başladık. İndirme linkleri sizi ouo.io adresinde yönlendirecek, 3 saniye geçtikten sonra Get Link butonuna tıklayarak linke ulaşacaksınız. Premium üyeler bu durumdan etkilenmeyecektir.


Premium Üyelik Al

Arkadaş Oyunları (Buddy Games) - 2019 - TR - BRRip XviD | tt7070818
TheSteeL
Arkadaş Oyunları (Buddy Games) - 2019 - TR - BRRip XviD | tt7070818
0
134
  • Derecelendirme: 0/5 - 0 oy
  • 1
  • 2
  • 3
  • 4
  • 5
Konuyu Okuyanlar:1 Ziyaretçi
Şuan Online!
Filmin Yayınlanma Tarihi: 2019 
Şuan Online!
TheSteeL Chief Executive Officer
******
CEO


 Arkadaş Oyunları



Uzun zaman önce çok iyi arkadaş olan altı kişi, zamanla ayrılıkların yaşanması ile birbirlerinden soğumaya başlarlar. Bunun sonucunda daha az görüşmeye başlar ve gitgide araları açılır. Fakat bir zaman sonra onları bir araya getirecek bir şey doğar. The Buddy Games isminde bir oyun piyasaya sürülür ve katılmak için altı kişiye gerek vardır. Bu yüzden arkadaşlar birbirlerini tekrar hatırlar ve bu biraz saçma biraz eğlenceli ve 150 Bin dolar ödüllü oyun için bir araya gelirler...

Arkadaş Oyunları (2019) (Buddy Games) | tt7070818 Filmi Imdb'den 3000 kişi tarafından oylandı ve 4,9 puan aldı. Bu film için editör puanı %55 olarak belirlendi. İyi Seyirler!

Teknik Detaylar

Kod :
General
Unique ID                                : 8004714743920148243697359742101441077 (0x605A6E84D841ECB136A02A8A5094A35)
Complete name                            : /home/TheSteel/Desktop/2/Arkadaş.Oyunları.2019.HDRip.XViD.TR.Filmbol.avi
Format                                   : Matroska
Format version                           : Version 4
File size                                : 1.41 GiB
Duration                                 : 1 h 36 min
Overall bit rate                         : 2 093 kb/s
Movie name                               : Buddy Games - Arkadaş Oyunları - 2019 | Filmbol.org
Encoded date                             : UTC 2021-04-03 18:27:27
Writing application                      : mkvmerge v31.0.0 ('Dolores In A Shoestand') 64-bit
Writing library                          : libebml v1.3.6 + libmatroska v1.4.9
FileExtension_Invalid                    : mkv mk3d mka mks

Video
ID                                       : 1
Format                                   : MPEG-4 Visual
Format profile                           : Advanced [email protected]
Format settings                          : BVOP1 / Custom Matrix
Format settings, BVOP                    : 1
Format settings, QPel                    : No
Format settings, GMC                     : No warppoints
Format settings, Matrix                  : Custom
Codec ID                                 : V_MS/VFW/FOURCC / XVID
Codec ID/Hint                            : XviD
Duration                                 : 1 h 36 min
Bit rate                                 : 1 963 kb/s
Width                                    : 720 pixels
Height                                   : 304 pixels
Display aspect ratio                     : 2.35:1
Frame rate mode                          : Constant
Frame rate                               : 23.976 (23976/1000) FPS
Color space                              : YUV
Chroma subsampling                       : 4:2:0
Bit depth                                : 8 bits
Scan type                                : Progressive
Compression mode                         : Lossy
Bits/(Pixel*Frame)                       : 0.374
Stream size                              : 1.33 GiB (94%)
Title                                    : Buddy Games - Arkadaş Oyunları - 2019 | Filmbol.org
Writing library                          : XviD 73
Default                                  : Yes
Forced                                   : No

Audio
ID                                       : 2
Format                                   : MPEG Audio
Format version                           : Version 1
Format profile                           : Layer 3
Format settings                          : Joint stereo / MS Stereo
Codec ID                                 : A_MPEG/L3
Codec ID/Hint                            : MP3
Duration                                 : 1 h 36 min
Bit rate mode                            : Constant
Bit rate                                 : 128 kb/s
Channel(s)                               : 2 channels
Sampling rate                            : 48.0 kHz
Frame rate                               : 41.667 FPS (1152 SPF)
Compression mode                         : Lossy
Stream size                              : 88.4 MiB (6%)
Title                                    : Buddy Games - Arkadaş Oyunları - 2019 | Filmbol.org
Default                                  : Yes
Forced                                   : No

Film Detayları


 Arkadaş Oyunları

 Arkadaş Oyunları

 Arkadaş Oyunları


Film Fragmanı


Film İndir



Zip Şifresi: filmbol.org Aşağıdaki butona tıklayarak kopyalabilirsiniz.



Uptobox ile indir

1Fichier ile indir

1Fichier'den İndiremiyor musun? Tıklayın!





Filmbol Cloud

Bunun için üzgünüz ancak, bu linke sadece premium üyeler erişebilir.




WWW


Hızlı Menü: