Filmbol Forum Film İndir 720P v Aynı Dalganın İçinde (Sulla Stessa Onda) - 2021 - TR+ORG - 720P | tt12013758
Bildirimi Kapat
Server kaynaklı problemden dolayı ciddi bir sorun yaşadık. Şuanda forum ve portal aktif halde ancak bazı problemler hala devam ediyor. Problem gördüğünüz yerleri bize bildirmeniz çok önemli. Teşekkürler.

Bildirimi Kapat
Merhaba , site giderlerini bir nebze olsun karşılamak adına link kısaltma servisleri kullanmaya başladık. İndirme linkleri sizi ouo.io adresinde yönlendirecek, 3 saniye geçtikten sonra Get Link butonuna tıklayarak linke ulaşacaksınız. Premium üyeler bu durumdan etkilenmeyecektir.


Premium Üyelik Al

Aynı Dalganın İçinde (Sulla Stessa Onda) - 2021 - TR+ORG - 720P | tt12013758
TheSteeL
Aynı Dalganın İçinde (Sulla Stessa Onda) - 2021 - TR+ORG - 720P | tt12013758
0
157
  • Derecelendirme: 0/5 - 0 oy
  • 1
  • 2
  • 3
  • 4
  • 5
Konuyu Okuyanlar:1 Ziyaretçi
Şuan Online!
Filmin Yayınlanma Tarihi: 2021 
Şuan Online!
TheSteeL Chief Executive Officer
******
CEO


 Aynı Dalganın İçinde



Sicilya, yelkenleri ve denizi ile ünlü bir yer. Aşkların yaşandığı, evliliklerin en güzel yaşandığı yer olsa gerek. Yada bunların tam tersi. Bu tamamen bakış açısı ve filmde birbirine âşık olan iki Sicilyalı gencin ilginç hikayesini izleyeceksiniz...

Aynı Dalganın İçinde (2021) (Sulla Stessa Onda) | tt12013758 Filmi Imdb'den 400 kişi tarafından oylandı ve 5,4 puan aldı. Bu film için editör puanı %55 olarak belirlendi. İyi Seyirler!

Teknik Detaylar

Kod :
General
Unique ID                                : 317428396336802399447585841316556012635 (0xEECE7C413BD17471DD24B0EFF50D7C5B)
Complete name                            : /home/TheSteel/Desktop/1/Aynı.Dalganın.İçinde.2021.720p.WEB-DL.x264.TR.IT.Filmbol.mkv
Format                                   : Matroska
Format version                           : Version 4
File size                                : 1.40 GiB
Duration                                 : 1 h 39 min
Overall bit rate                         : 2 012 kb/s
Movie name                               : Sulla Stessa Onda - Aynı Dalganın İçinde - 2021 | Filmbol.org
Encoded date                             : UTC 2021-04-01 16:08:52
Writing application                      : mkvmerge v31.0.0 ('Dolores In A Shoestand') 64-bit
Writing library                          : libebml v1.3.6 + libmatroska v1.4.9

Video
ID                                       : 1
Format                                   : AVC
Format/Info                              : Advanced Video Codec
Format profile                           : [email protected]
Format settings                          : CABAC / 2 Ref Frames
Format settings, CABAC                   : Yes
Format settings, Reference frames        : 2 frames
Codec ID                                 : V_MPEG4/ISO/AVC
Duration                                 : 1 h 39 min
Bit rate                                 : 1 434 kb/s
Width                                    : 1 280 pixels
Height                                   : 720 pixels
Display aspect ratio                     : 16:9
Frame rate mode                          : Constant
Frame rate                               : 24.000 FPS
Color space                              : YUV
Chroma subsampling                       : 4:2:0
Bit depth                                : 8 bits
Scan type                                : Progressive
Bits/(Pixel*Frame)                       : 0.065
Stream size                              : 1 021 MiB (71%)
Title                                    : Sulla Stessa Onda - Aynı Dalganın İçinde - 2021 | Filmbol.org
Default                                  : Yes
Forced                                   : No

Audio #1
ID                                       : 2
Format                                   : AC-3
Format/Info                              : Audio Coding 3
Commercial name                          : Dolby Digital
Codec ID                                 : A_AC3
Duration                                 : 1 h 39 min
Bit rate mode                            : Constant
Bit rate                                 : 384 kb/s
Channel(s)                               : 6 channels
Channel layout                           : L R C LFE Ls Rs
Sampling rate                            : 48.0 kHz
Frame rate                               : 31.250 FPS (1536 SPF)
Compression mode                         : Lossy
Stream size                              : 273 MiB (19%)
Title                                    : Sulla Stessa Onda - Aynı Dalganın İçinde - 2021 | Filmbol.org
Language                                 : Turkish
Service kind                             : Complete Main
Default                                  : Yes
Forced                                   : No

Audio #2
ID                                       : 3
Format                                   : AC-3
Format/Info                              : Audio Coding 3
Commercial name                          : Dolby Digital
Codec ID                                 : A_AC3
Duration                                 : 1 h 39 min
Bit rate mode                            : Constant
Bit rate                                 : 192 kb/s
Channel(s)                               : 2 channels
Channel layout                           : L R
Sampling rate                            : 48.0 kHz
Frame rate                               : 31.250 FPS (1536 SPF)
Compression mode                         : Lossy
Stream size                              : 137 MiB (10%)
Title                                    : Sulla Stessa Onda - Aynı Dalganın İçinde - 2021 | Filmbol.org
Language                                 : Italian
Service kind                             : Complete Main
Default                                  : No
Forced                                   : No

Text #1
ID                                       : 4
Format                                   : UTF-8
Codec ID                                 : S_TEXT/UTF8
Codec ID/Info                            : UTF-8 Plain Text
Duration                                 : 1 h 38 min
Bit rate                                 : 0 b/s
Count of elements                        : 8
Stream size                              : 193 Bytes (0%)
Title                                    : Sulla Stessa Onda - Aynı Dalganın İçinde - 2021 | Filmbol.org
Language                                 : Turkish
Default                                  : Yes
Forced                                   : Yes

Text #2
ID                                       : 5
Format                                   : UTF-8
Codec ID                                 : S_TEXT/UTF8
Codec ID/Info                            : UTF-8 Plain Text
Duration                                 : 1 h 38 min
Bit rate                                 : 33 b/s
Count of elements                        : 961
Stream size                              : 23.8 KiB (0%)
Title                                    : Sulla Stessa Onda - Aynı Dalganın İçinde - 2021 | Filmbol.org
Language                                 : Turkish
Default                                  : No
Forced                                   : No

Film Detayları


 Aynı Dalganın İçinde

 Aynı Dalganın İçinde

 Aynı Dalganın İçinde


Film Fragmanı


Film İndir



Zip Şifresi: filmbol.org Aşağıdaki butona tıklayarak kopyalabilirsiniz.


Uptobox ile indir

1Fichier ile indir

1Fichier'den İndiremiyor musun? Tıklayın!





Filmbol Cloud

Bunun için üzgünüz ancak, bu linke sadece premium üyeler erişebilir.




WWW


Hızlı Menü: