Filmbol Forum Film İndir BRRip XviD v Aynı Dalganın İçinde (Sulla Stessa Onda) - 2021 - TR - BRRip XviD | tt12013758
Bildirimi Kapat
Server kaynaklı problemden dolayı ciddi bir sorun yaşadık. Şuanda forum ve portal aktif halde ancak bazı problemler hala devam ediyor. Problem gördüğünüz yerleri bize bildirmeniz çok önemli. Teşekkürler.

Bildirimi Kapat
Merhaba , site giderlerini bir nebze olsun karşılamak adına link kısaltma servisleri kullanmaya başladık. İndirme linkleri sizi ouo.io adresinde yönlendirecek, 3 saniye geçtikten sonra Get Link butonuna tıklayarak linke ulaşacaksınız. Premium üyeler bu durumdan etkilenmeyecektir.


Premium Üyelik Al

Aynı Dalganın İçinde (Sulla Stessa Onda) - 2021 - TR - BRRip XviD | tt12013758
TheSteeL
Aynı Dalganın İçinde (Sulla Stessa Onda) - 2021 - TR - BRRip XviD | tt12013758
0
129
  • Derecelendirme: 0/5 - 0 oy
  • 1
  • 2
  • 3
  • 4
  • 5
Konuyu Okuyanlar:1 Ziyaretçi
Şuan Online!
Filmin Yayınlanma Tarihi: 2021 
Şuan Online!
TheSteeL Chief Executive Officer
******
CEO


 Aynı Dalganın İçinde



Sicilya, yelkenleri ve denizi ile ünlü bir yer. Aşkların yaşandığı, evliliklerin en güzel yaşandığı yer olsa gerek. Yada bunların tam tersi. Bu tamamen bakış açısı ve filmde birbirine âşık olan iki Sicilyalı gencin ilginç hikayesini izleyeceksiniz...

Aynı Dalganın İçinde (2021) (Sulla Stessa Onda) | tt12013758 Filmi Imdb'den 400 kişi tarafından oylandı ve 5,4 puan aldı. Bu film için editör puanı %55 olarak belirlendi. İyi Seyirler!

Teknik Detaylar

Kod :
General
Unique ID                                : 295457127230006898200943795506440913689 (0xDE46F90D735AF05CAF99313EE7654319)
Complete name                            : /home/TheSteel/Desktop/1/Aynı.Dalganın.İçinde.2021.HDRip.XViD.TR.Filmbol.avi
Format                                   : Matroska
Format version                           : Version 4
File size                                : 1.19 GiB
Duration                                 : 1 h 39 min
Overall bit rate                         : 1 718 kb/s
Movie name                               : Sulla Stessa Onda - Aynı Dalganın İçinde - 2021 | Filmbol.org
Encoded date                             : UTC 2021-04-01 16:13:40
Writing application                      : mkvmerge v31.0.0 ('Dolores In A Shoestand') 64-bit
Writing library                          : libebml v1.3.6 + libmatroska v1.4.9
FileExtension_Invalid                    : mkv mk3d mka mks

Video
ID                                       : 1
Format                                   : MPEG-4 Visual
Format profile                           : [email protected]
Format settings, BVOP                    : No
Format settings, QPel                    : No
Format settings, GMC                     : No warppoints
Format settings, Matrix                  : Default (H.263)
Codec ID                                 : V_MS/VFW/FOURCC / XVID
Codec ID/Hint                            : XviD
Duration                                 : 1 h 39 min
Bit rate                                 : 1 588 kb/s
Width                                    : 720 pixels
Height                                   : 360 pixels
Display aspect ratio                     : 2.000
Frame rate mode                          : Constant
Frame rate                               : 24.000 FPS
Color space                              : YUV
Chroma subsampling                       : 4:2:0
Bit depth                                : 8 bits
Scan type                                : Progressive
Compression mode                         : Lossy
Bits/(Pixel*Frame)                       : 0.255
Stream size                              : 1.10 GiB (92%)
Title                                    : Sulla Stessa Onda - Aynı Dalganın İçinde - 2021 | Filmbol.org
Writing library                          : Lavc58.35.100
Default                                  : Yes
Forced                                   : No

Audio
ID                                       : 2
Format                                   : MPEG Audio
Format version                           : Version 1
Format profile                           : Layer 3
Format settings                          : Joint stereo / MS Stereo
Codec ID                                 : A_MPEG/L3
Codec ID/Hint                            : MP3
Duration                                 : 1 h 39 min
Bit rate mode                            : Constant
Bit rate                                 : 128 kb/s
Channel(s)                               : 2 channels
Sampling rate                            : 48.0 kHz
Frame rate                               : 41.667 FPS (1152 SPF)
Compression mode                         : Lossy
Stream size                              : 91.1 MiB (7%)
Title                                    : Sulla Stessa Onda - Aynı Dalganın İçinde - 2021 | Filmbol.org
Default                                  : Yes
Forced                                   : No

Film Detayları


 Aynı Dalganın İçinde

 Aynı Dalganın İçinde

 Aynı Dalganın İçinde


Film Fragmanı


Film İndir



Zip Şifresi: filmbol.org Aşağıdaki butona tıklayarak kopyalabilirsiniz.



Uptobox ile indir

1Fichier ile indir

1Fichier'den İndiremiyor musun? Tıklayın!






Filmbol Cloud

Bunun için üzgünüz ancak, bu linke sadece premium üyeler erişebilir.




WWW


Hızlı Menü: