Filmbol Forum Film İndir 1080P v Kovan (Kovan) - 2020 - TR+ORG - 1080P | tt12285116
Bildirimi Kapat
Server kaynaklı problemden dolayı ciddi bir sorun yaşadık. Şuanda forum ve portal aktif halde ancak bazı problemler hala devam ediyor. Problem gördüğünüz yerleri bize bildirmeniz çok önemli. Teşekkürler.

Bildirimi Kapat
Merhaba , site giderlerini bir nebze olsun karşılamak adına link kısaltma servisleri kullanmaya başladık. İndirme linkleri sizi ouo.io adresinde yönlendirecek, 3 saniye geçtikten sonra Get Link butonuna tıklayarak linke ulaşacaksınız. Premium üyeler bu durumdan etkilenmeyecektir.


Premium Üyelik Al

Kovan (Kovan) - 2020 - TR+ORG - 1080P | tt12285116
TheSteeL
Kovan (Kovan) - 2020 - TR+ORG - 1080P | tt12285116
1
161
  • Derecelendirme: 0/5 - 0 oy
  • 1
  • 2
  • 3
  • 4
  • 5
Konuyu Okuyanlar:1 Ziyaretçi
Şuan Online!
Filmin Yayınlanma Tarihi: 2020 
Şuan Online!
TheSteeL Chief Executive Officer
******
CEO


 Kovan



Ayşe orta seviye bir çiftçi ailenin gözde kızıdır. Ailesi onun zeki bir kadın olduğunu anladığında, kendini geliştirmesi için Almanya'ya gönderilir. Bir süre sonra annesi zorlu bir hastalığa yakalanır ve ölüm döşeğindedir. Haberi alan Ayşe hızlı bir şekilde annesinin yanına gider. Annesinin Ayşe den tek isteği, dede mesleği olan arıcılığı yapmak ve geliştirmesidir. Ayşe başlarda bu işi yapamayacağını düşünse de, annesinin isteğini yerine getirmek için kolları sıvar. Zamanla işi mükemmel yapmaya başlar ve modern yöntemler üretir. Fakat onun bu başarısı köy erkekleri tarafından kıskanılır ve köyde çatışma başlar....

Kovan (2020) (Kovan) | tt12285116 Filmi Imdb'den 300 kişi tarafından oylandı ve 5,9 puan aldı. Bu film için editör puanı %60 olarak belirlendi. İyi Seyirler!

Teknik Detaylar

Kod :
General
Unique ID                                : 277739593373264341814917658412767539880 (0xD0F2B330B4D59FCE66CBC8DF014072A8)
Complete name                            : /home/TheSteel/Desktop/3/Kovan.2020.1080p.WEB-DL.x264.Filmbol.mkv
Format                                   : Matroska
Format version                           : Version 4
File size                                : 1.72 GiB
Duration                                 : 1 h 33 min
Overall bit rate                         : 2 636 kb/s
Movie name                               : Kovan - 2020  | Filmbol.org
Encoded date                             : UTC 2021-03-31 14:34:54
Writing application                      : mkvmerge v31.0.0 ('Dolores In A Shoestand') 64-bit
Writing library                          : libebml v1.3.6 + libmatroska v1.4.9

Video
ID                                       : 1
Format                                   : AVC
Format/Info                              : Advanced Video Codec
Format profile                           : [email protected]
Format settings                          : CABAC / 4 Ref Frames
Format settings, CABAC                   : Yes
Format settings, Reference frames        : 4 frames
Codec ID                                 : V_MPEG4/ISO/AVC
Duration                                 : 1 h 33 min
Bit rate                                 : 2 250 kb/s
Width                                    : 1 920 pixels
Height                                   : 1 080 pixels
Display aspect ratio                     : 16:9
Frame rate mode                          : Constant
Frame rate                               : 24.000 FPS
Color space                              : YUV
Chroma subsampling                       : 4:2:0
Bit depth                                : 8 bits
Scan type                                : Progressive
Bits/(Pixel*Frame)                       : 0.045
Stream size                              : 1.47 GiB (85%)
Title                                    : Kovan - 2020  | Filmbol.org
Writing library                          : x264 core 157 r2932 303c484
Encoding settings                        : cabac=1 / ref=3 / deblock=1:0:0 / analyse=0x3:0x113 / me=hex / subme=7 / psy=1 / psy_rd=1.00:0.00 / mixed_ref=1 / me_range=16 / chroma_me=1 / trellis=1 / 8x8dct=1 / cqm=0 / deadzone=21,11 / fast_pskip=1 / chroma_qp_offset=-2 / threads=24 / lookahead_threads=4 / sliced_threads=0 / nr=0 / decimate=1 / interlaced=0 / bluray_compat=0 / constrained_intra=0 / bframes=3 / b_pyramid=2 / b_adapt=1 / b_bias=0 / direct=1 / weightb=1 / open_gop=0 / weightp=2 / keyint=250 / keyint_min=25 / scenecut=40 / intra_refresh=0 / rc_lookahead=40 / rc=crf / mbtree=1 / crf=21.0 / qcomp=0.60 / qpmin=0 / qpmax=69 / qpstep=4 / ip_ratio=1.40 / aq=1:1.00
Default                                  : Yes
Forced                                   : No

Audio
ID                                       : 2
Format                                   : AC-3
Format/Info                              : Audio Coding 3
Commercial name                          : Dolby Digital
Codec ID                                 : A_AC3
Duration                                 : 1 h 33 min
Bit rate mode                            : Constant
Bit rate                                 : 384 kb/s
Channel(s)                               : 6 channels
Channel layout                           : L R C LFE Ls Rs
Sampling rate                            : 48.0 kHz
Frame rate                               : 31.250 FPS (1536 SPF)
Compression mode                         : Lossy
Stream size                              : 256 MiB (15%)
Title                                    : Kovan - 2020  | Filmbol.org
Language                                 : Turkish
Service kind                             : Complete Main
Default                                  : Yes
Forced                                   : No

Film Detayları


 Kovan

 Kovan

 Kovan


Film Fragmanı


Film İndir



Zip Şifresi: filmbol.org Aşağıdaki butona tıklayarak kopyalabilirsiniz.


Uptobox ile indir

1Fichier ile indir

1Fichier'den İndiremiyor musun? Tıklayın!





Filmbol Cloud

Bunun için üzgünüz ancak, bu linke sadece premium üyeler erişebilir.




WWW
Şuan Online!
Şuan Online!
ghosthunter Yeni Üye
*
Üye
  • Konular0
  • Mesajlar24
  • Rep puanı 0
tesekurler emege sagol


Hızlı Menü: