Filmbol Forum Film İndir BRRip XviD v Kovan (Kovan) - 2020 - TR - BRRip XviD | tt12285116
Bildirimi Kapat
Server kaynaklı problemden dolayı ciddi bir sorun yaşadık. Şuanda forum ve portal aktif halde ancak bazı problemler hala devam ediyor. Problem gördüğünüz yerleri bize bildirmeniz çok önemli. Teşekkürler.

Bildirimi Kapat
Merhaba , site giderlerini bir nebze olsun karşılamak adına link kısaltma servisleri kullanmaya başladık. İndirme linkleri sizi ouo.io adresinde yönlendirecek, 3 saniye geçtikten sonra Get Link butonuna tıklayarak linke ulaşacaksınız. Premium üyeler bu durumdan etkilenmeyecektir.


Premium Üyelik Al

Kovan (Kovan) - 2020 - TR - BRRip XviD | tt12285116
TheSteeL
Kovan (Kovan) - 2020 - TR - BRRip XviD | tt12285116
0
95
  • Derecelendirme: 0/5 - 0 oy
  • 1
  • 2
  • 3
  • 4
  • 5
Konuyu Okuyanlar:1 Ziyaretçi
Şuan Online!
Filmin Yayınlanma Tarihi: 2020 
Şuan Online!
TheSteeL Chief Executive Officer
******
CEO


 Kovan



Ayşe orta seviye bir çiftçi ailenin gözde kızıdır. Ailesi onun zeki bir kadın olduğunu anladığında, kendini geliştirmesi için Almanya'ya gönderilir. Bir süre sonra annesi zorlu bir hastalığa yakalanır ve ölüm döşeğindedir. Haberi alan Ayşe hızlı bir şekilde annesinin yanına gider. Annesinin Ayşe den tek isteği, dede mesleği olan arıcılığı yapmak ve geliştirmesidir. Ayşe başlarda bu işi yapamayacağını düşünse de, annesinin isteğini yerine getirmek için kolları sıvar. Zamanla işi mükemmel yapmaya başlar ve modern yöntemler üretir. Fakat onun bu başarısı köy erkekleri tarafından kıskanılır ve köyde çatışma başlar....

Kovan (2020) (Kovan) | tt12285116 Filmi Imdb'den 300 kişi tarafından oylandı ve 5,9 puan aldı. Bu film için editör puanı %60 olarak belirlendi. İyi Seyirler!

Teknik Detaylar

Kod :
General
Unique ID                                : 186674791479691355941499234729301168430 (0x8C7041CFD15BCEA91C3AA738C8FCD12E)
Complete name                            : /home/TheSteel/Desktop/3/Kovan.2020.HDRip.XViD.Filmbol.avi
Format                                   : Matroska
Format version                           : Version 4
File size                                : 750 MiB
Duration                                 : 1 h 33 min
Overall bit rate                         : 1 124 kb/s
Movie name                               : Kovan - 2020 | Filmbol.org
Encoded date                             : UTC 2021-03-31 15:17:10
Writing application                      : mkvmerge v31.0.0 ('Dolores In A Shoestand') 64-bit
Writing library                          : libebml v1.3.6 + libmatroska v1.4.9
FileExtension_Invalid                    : mkv mk3d mka mks

Video
ID                                       : 1
Format                                   : MPEG-4 Visual
Format profile                           : Advanced [email protected]
Format settings                          : BVOP2
Format settings, BVOP                    : 2
Format settings, QPel                    : No
Format settings, GMC                     : No warppoints
Format settings, Matrix                  : Default (MPEG)
Muxing mode                              : Packed bitstream
Codec ID                                 : V_MS/VFW/FOURCC / XVID
Codec ID/Hint                            : XviD
Duration                                 : 1 h 33 min
Bit rate                                 : 994 kb/s
Width                                    : 720 pixels
Height                                   : 404 pixels
Display aspect ratio                     : 16:9
Frame rate mode                          : Constant
Frame rate                               : 24.000 FPS
Color space                              : YUV
Chroma subsampling                       : 4:2:0
Bit depth                                : 8 bits
Scan type                                : Progressive
Compression mode                         : Lossy
Bits/(Pixel*Frame)                       : 0.142
Stream size                              : 663 MiB (88%)
Title                                    : Kovan - 2020 | Filmbol.org
Writing library                          : XviD 64
Default                                  : Yes
Forced                                   : No

Audio
ID                                       : 2
Format                                   : MPEG Audio
Format version                           : Version 1
Format profile                           : Layer 3
Format settings                          : Joint stereo / MS Stereo
Codec ID                                 : A_MPEG/L3
Codec ID/Hint                            : MP3
Duration                                 : 1 h 33 min
Bit rate mode                            : Constant
Bit rate                                 : 128 kb/s
Channel(s)                               : 2 channels
Sampling rate                            : 48.0 kHz
Frame rate                               : 41.667 FPS (1152 SPF)
Compression mode                         : Lossy
Stream size                              : 85.4 MiB (11%)
Title                                    : Kovan - 2020 | Filmbol.org
Default                                  : Yes
Forced                                   : No

Film Detayları


 Kovan

 Kovan

 Kovan


Film Fragmanı


Film İndir



Zip Şifresi: filmbol.org Aşağıdaki butona tıklayarak kopyalabilirsiniz.



Uptobox ile indir

1Fichier ile indir

1Fichier'den İndiremiyor musun? Tıklayın!





Filmbol Cloud

Bunun için üzgünüz ancak, bu linke sadece premium üyeler erişebilir.




WWW


Hızlı Menü: