Filmbol Forum Film İndir 720P v Sihir Gizli Servisi (Secret Magic Control Agency) - 2021 - TR+ORG - 720P | tt13932162
Bildirimi Kapat
Server kaynaklı problemden dolayı ciddi bir sorun yaşadık. Şuanda forum ve portal aktif halde ancak bazı problemler hala devam ediyor. Problem gördüğünüz yerleri bize bildirmeniz çok önemli. Teşekkürler.

Bildirimi Kapat
Merhaba , site giderlerini bir nebze olsun karşılamak adına link kısaltma servisleri kullanmaya başladık. İndirme linkleri sizi ouo.io adresinde yönlendirecek, 3 saniye geçtikten sonra Get Link butonuna tıklayarak linke ulaşacaksınız. Premium üyeler bu durumdan etkilenmeyecektir.


Premium Üyelik Al

Sihir Gizli Servisi (Secret Magic Control Agency) - 2021 - TR+ORG - 720P | tt13932162
TheSteeL
Sihir Gizli Servisi (Secret Magic Control Agency) - 2021 - TR+ORG - 720P | tt13932162
0
165
  • Derecelendirme: 0/5 - 0 oy
  • 1
  • 2
  • 3
  • 4
  • 5
Konuyu Okuyanlar:2 Ziyaretçi
Şuan Online!
Filmin Yayınlanma Tarihi: 2021 
Şuan Online!
TheSteeL Chief Executive Officer
******
CEO


 Sihir Gizli Servisi



Hansel ile Gratel'i yüksek bir yerlerden zaten duymuşsunuzdur. Sihir: Gizli Servis filmi ise Animasyon tarzında Hansel ve Gretel masalına yeni bir soluk getiriyor. Bu sefer farklı bir maceraya atılan Hansel ile Gratel, ajanlık görevi üstleniyor. Ancak aldıkları görevler alışık oldukları tarzda olmadığı için, adapte olmak zorundalar...

Sihir Gizli Servisi (2021) (Secret Magic Control Agency) | tt13932162 Filmi Imdb'den 500 kişi tarafından oylandı ve 6,2 puan aldı. Bu film için editör puanı %60 olarak belirlendi. İyi Seyirler!

Teknik Detaylar

Kod :
General
Unique ID                                : 120734241654632828905191844325480401202 (0x5AD491B29B0473F71178946CFE730932)
Complete name                            : /home/TheSteel/Desktop/1/Sihir.Gizli.Servisi.2021.720p.WEB-DL.x264.TR.ENG.Filmbol.mkv
Format                                   : Matroska
Format version                           : Version 4
File size                                : 1.34 GiB
Duration                                 : 1 h 45 min
Overall bit rate                         : 1 821 kb/s
Movie name                               : Secret Magic Control Agency - Sihir Gizli Servisi - 2021 | Filmbol.org
Encoded date                             : UTC 2021-03-30 13:06:55
Writing application                      : mkvmerge v31.0.0 ('Dolores In A Shoestand') 64-bit
Writing library                          : libebml v1.3.6 + libmatroska v1.4.9

Video
ID                                       : 1
Format                                   : AVC
Format/Info                              : Advanced Video Codec
Format profile                           : [email protected]
Format settings                          : CABAC / 2 Ref Frames
Format settings, CABAC                   : Yes
Format settings, Reference frames        : 2 frames
Codec ID                                 : V_MPEG4/ISO/AVC
Duration                                 : 1 h 45 min
Bit rate                                 : 1 242 kb/s
Width                                    : 1 280 pixels
Height                                   : 720 pixels
Display aspect ratio                     : 16:9
Frame rate mode                          : Constant
Frame rate                               : 24.000 FPS
Color space                              : YUV
Chroma subsampling                       : 4:2:0
Bit depth                                : 8 bits
Scan type                                : Progressive
Bits/(Pixel*Frame)                       : 0.056
Stream size                              : 935 MiB (68%)
Title                                    : Secret Magic Control Agency - Sihir Gizli Servisi - 2021 | Filmbol.org
Language                                 : English
Default                                  : Yes
Forced                                   : No

Audio #1
ID                                       : 2
Format                                   : AC-3
Format/Info                              : Audio Coding 3
Commercial name                          : Dolby Digital
Codec ID                                 : A_AC3
Duration                                 : 1 h 45 min
Bit rate mode                            : Constant
Bit rate                                 : 384 kb/s
Channel(s)                               : 6 channels
Channel layout                           : L R C LFE Ls Rs
Sampling rate                            : 48.0 kHz
Frame rate                               : 31.250 FPS (1536 SPF)
Compression mode                         : Lossy
Stream size                              : 289 MiB (21%)
Title                                    : Secret Magic Control Agency - Sihir Gizli Servisi - 2021 | Filmbol.org
Language                                 : Turkish
Service kind                             : Complete Main
Default                                  : Yes
Forced                                   : No

Audio #2
ID                                       : 3
Format                                   : AC-3
Format/Info                              : Audio Coding 3
Commercial name                          : Dolby Digital
Codec ID                                 : A_AC3
Duration                                 : 1 h 45 min
Bit rate mode                            : Constant
Bit rate                                 : 192 kb/s
Channel(s)                               : 2 channels
Channel layout                           : L R
Sampling rate                            : 48.0 kHz
Frame rate                               : 31.250 FPS (1536 SPF)
Compression mode                         : Lossy
Stream size                              : 145 MiB (11%)
Title                                    : Secret Magic Control Agency - Sihir Gizli Servisi - 2021 | Filmbol.org
Language                                 : English
Service kind                             : Complete Main
Default                                  : No
Forced                                   : No

Text #1
ID                                       : 4
Format                                   : UTF-8
Codec ID                                 : S_TEXT/UTF8
Codec ID/Info                            : UTF-8 Plain Text
Duration                                 : 1 h 40 min
Bit rate                                 : 0 b/s
Count of elements                        : 4
Stream size                              : 112 Bytes (0%)
Title                                    : Secret Magic Control Agency - Sihir Gizli Servisi - 2021 | Filmbol.org
Language                                 : Turkish
Default                                  : Yes
Forced                                   : Yes

Text #2
ID                                       : 5
Format                                   : UTF-8
Codec ID                                 : S_TEXT/UTF8
Codec ID/Info                            : UTF-8 Plain Text
Duration                                 : 1 h 42 min
Bit rate                                 : 47 b/s
Count of elements                        : 1157
Stream size                              : 35.9 KiB (0%)
Title                                    : Secret Magic Control Agency - Sihir Gizli Servisi - 2021 | Filmbol.org
Language                                 : Turkish
Default                                  : No
Forced                                   : No

Film Detayları


 Sihir Gizli Servisi

 Sihir Gizli Servisi

 Sihir Gizli Servisi


Film Fragmanı


Film İndir



Zip Şifresi: filmbol.org Aşağıdaki butona tıklayarak kopyalabilirsiniz.


Uptobox ile indir

1Fichier ile indir

1Fichier'den İndiremiyor musun? Tıklayın!





Filmbol Cloud

Bunun için üzgünüz ancak, bu linke sadece premium üyeler erişebilir.




WWW


Hızlı Menü: