Filmbol Forum Film İndir BRRip XviD v Sihir Gizli Servisi (Secret Magic Control Agency) - 2021 - TR - BRRip XviD | tt13932162
Bildirimi Kapat
Üyelik alımları açıldı.


Bildirimi Kapat
Mega linklerinin şikayet edilmemesi için global erişime kapatıp sadece yorum yapanlara açıyoruz. Bu linkleri gizleme işlemini mecburen yapıyoruz ve yorum yapmanızın siteye değil size faydası vardır. Teşekkürler yazmayı çok görüp, Random/Spam/Anlamsız mesajlar atarak forumu kirletip Mega linklerini açmaya çalışan kullanıcılara süresiz ban atacağız.

Premium Üyelik Al

Sihir Gizli Servisi (Secret Magic Control Agency) - 2021 - TR - BRRip XviD | tt13932162
TheSteeL
Sihir Gizli Servisi (Secret Magic Control Agency) - 2021 - TR - BRRip XviD | tt13932162
4
196
  • Derecelendirme: 0/5 - 0 oy
  • 1
  • 2
  • 3
  • 4
  • 5
Konuyu Okuyanlar:1 Ziyaretçi
Şuan Online!
Filmin Yayınlanma Tarihi: 2021 
WWW
Şuan Online!
TheSteeL Süper Moderatör
*****
Süper Moderatör



 Sihir Gizli Servisi



Hansel ile Gratel'i yüksek bir yerlerden zaten duymuşsunuzdur. Sihir: Gizli Servis filmi ise Animasyon tarzında Hansel ve Gretel masalına yeni bir soluk getiriyor. Bu sefer farklı bir maceraya atılan Hansel ile Gratel, ajanlık görevi üstleniyor. Ancak aldıkları görevler alışık oldukları tarzda olmadığı için, adapte olmak zorundalar...

Sihir Gizli Servisi (2021) (Secret Magic Control Agency) | tt13932162 Filmi Imdb'den 500 kişi tarafından oylandı ve 6,2 puan aldı. Bu film için editör puanı %60 olarak belirlendi. İyi Seyirler!

Teknik Detaylar

Kod :
General
Unique ID                                : 286503169475808636825470047339512781399 (0xD78A80D9F1274A0002E9D54D020ADA57)
Complete name                            : /home/TheSteel/Desktop/1/Sihir.Gizli.Servisi.2021.HDRip.XViD.TR.Filmbol.avi
Format                                   : Matroska
Format version                           : Version 4
File size                                : 1.25 GiB
Duration                                 : 1 h 45 min
Overall bit rate                         : 1 701 kb/s
Movie name                               : Secret Magic Control Agency - Sihir Gizli Servisi - 2021 | Filmbol.org
Encoded date                             : UTC 2021-03-30 13:12:47
Writing application                      : mkvmerge v31.0.0 ('Dolores In A Shoestand') 64-bit
Writing library                          : libebml v1.3.6 + libmatroska v1.4.9
FileExtension_Invalid                    : mkv mk3d mka mks

Video
ID                                       : 1
Format                                   : MPEG-4 Visual
Format profile                           : [email protected]
Format settings, BVOP                    : No
Format settings, QPel                    : No
Format settings, GMC                     : No warppoints
Format settings, Matrix                  : Default (H.263)
Codec ID                                 : V_MS/VFW/FOURCC / XVID
Codec ID/Hint                            : XviD
Duration                                 : 1 h 45 min
Bit rate                                 : 1 571 kb/s
Width                                    : 720 pixels
Height                                   : 302 pixels
Display aspect ratio                     : 2.40:1
Frame rate mode                          : Constant
Frame rate                               : 24.000 FPS
Color space                              : YUV
Chroma subsampling                       : 4:2:0
Bit depth                                : 8 bits
Scan type                                : Progressive
Compression mode                         : Lossy
Bits/(Pixel*Frame)                       : 0.301
Stream size                              : 1.15 GiB (92%)
Title                                    : Secret Magic Control Agency - Sihir Gizli Servisi - 2021 | Filmbol.org
Writing library                          : Lavc58.35.100
Default                                  : Yes
Forced                                   : No

Audio
ID                                       : 2
Format                                   : MPEG Audio
Format version                           : Version 1
Format profile                           : Layer 3
Format settings                          : Joint stereo / MS Stereo
Codec ID                                 : A_MPEG/L3
Codec ID/Hint                            : MP3
Duration                                 : 1 h 45 min
Bit rate mode                            : Constant
Bit rate                                 : 128 kb/s
Channel(s)                               : 2 channels
Sampling rate                            : 48.0 kHz
Frame rate                               : 41.667 FPS (1152 SPF)
Compression mode                         : Lossy
Stream size                              : 96.4 MiB (8%)
Title                                    : Secret Magic Control Agency - Sihir Gizli Servisi - 2021 | Filmbol.org
Default                                  : Yes
Forced                                   : No

Film Detayları


 Sihir Gizli Servisi

 Sihir Gizli Servisi

 Sihir Gizli Servisi


Film Fragmanı


Film Detayları


Uptobox ile indir

1Fichier ile indir

1Fichier'den İndiremiyor musun? Tıklayın!


Mega linki şuan da gizli. Kullanıma açmak için konuya yorum yapın ve ardından sayfayı yenileyin.

Mega


Bunun için üzgünüz ancak, bu linke sadece premium üyeler erişebilir.

Filmbol Cloud





Şuan Offine!
Şuan Offine!
asdasdasdasd Cezalı Üye

  • Konular0
  • Mesajlar3
vay be şaka maka linkler çalışıyor. helal olsun admin. ramazan günü çocuklar sıkıntıdan patladı evde kala kala. iyi gelecek sayende.
Şuan Online!
Şuan Online!
TheSteeL Süper Moderatör
*****
Süper Moderatör

(27-04-2021, Saat: 20:09)asdasdasdasd Adlı Kullanıcıdan Alıntı: vay be şaka maka linkler çalışıyor. helal olsun admin. ramazan günü çocuklar sıkıntıdan patladı evde kala kala. iyi gelecek sayende.
İyi Seyirler Smile
Şuan Offine!
Şuan Offine!
nazzlıcannn Yeni Üye
*
Üye

  • Konular0
  • Mesajlar5
  • Rep puanı 0
(27-04-2021, Saat: 20:09)asdasdasdasd Adlı Kullanıcıdan Alıntı: vay be şaka maka linkler çalışıyor. helal olsun admin. ramazan günü çocuklar sıkıntıdan patladı evde kala kala. iyi gelecek sayende.
random isim kullandık diye silinmişi.z vay bearkadaş. illa isimmi yaızıca?

(28-04-2021, Saat: 21:42)nazzlıcannn Adlı Kullanıcıdan Alıntı:
(27-04-2021, Saat: 20:09)asdasdasdasd Adlı Kullanıcıdan Alıntı: vay be şaka maka linkler çalışıyor. helal olsun admin. ramazan günü çocuklar sıkıntıdan patladı evde kala kala. iyi gelecek sayende.
random isim kullandık diye silinmişi.z vay bearkadaş. illa isimmi yaızıca?
ama yinede teşekkürler. çocuklar çok sevdi
Şuan Online!
Şuan Online!
TheSteeL Süper Moderatör
*****
Süper Moderatör

(28-04-2021, Saat: 21:42)nazzlıcannn Adlı Kullanıcıdan Alıntı:
(27-04-2021, Saat: 20:09)asdasdasdasd Adlı Kullanıcıdan Alıntı: vay be şaka maka linkler çalışıyor. helal olsun admin. ramazan günü çocuklar sıkıntıdan patladı evde kala kala. iyi gelecek sayende.
random isim kullandık diye silinmişi.z vay bearkadaş. illa isimmi yaızıca?
Evet Random kullanıcı adı veya mesajlar yasak Emeğe Saygı Sitenin Kuralları Herkes İçin Geçerlidir Kim Olursa Olsun.


Hızlı Menü: