Filmbol Forum Film İndir FHD - FULL HD v Asfaltın Kralları (Ford v Ferrari) - 2019 - TR+ORG - FHD - x264 | tt1950186

Premium Üyelik Al

Bildirimi Kapat
Mega linklerinin şikayet edilmemesi için global erişime kapatıp sadece yorum yapanlara açıyoruz. Bu linkleri gizleme işlemini mecburen yapıyoruz ve yorum yapmanızın siteye değil size faydası vardır. Teşekkürler yazmayı çok görüp, Random/Spam/Anlamsız mesajlar atarak forumu kirletip Mega linklerini açmaya çalışan kullanıcılara süresiz ban atacağız.


Asfaltın Kralları (Ford v Ferrari) - 2019 - TR+ORG - FHD - x264 | tt1950186
BroserBros
Asfaltın Kralları (Ford v Ferrari) - 2019 - TR+ORG - FHD - x264 | tt1950186
0
77
  • Derecelendirme: 0/5 - 0 oy
  • 1
  • 2
  • 3
  • 4
  • 5
Konuyu Okuyanlar:1 Ziyaretçi
Şuan Online!
Filmin Yayınlanma Tarihi: 2019 
WWW
Şuan Online!
BroserBros Kurucu Admin
*******
Admin



 Asfaltın Kralları



Asfaltın Kralları tamamen gerçek bir hikayeden konuyu ele alıyor. Eski zamanda geçen bu film 1966 yılında ki yarış hikayesine vurgu yapıyor. Ayrıca bu yarış tam olarak 24 Saat sürüyor ve zorlu bir parkuru vardır. Bu yarış yarışçılar için elbette önemlidir ancak sadece onlar için değildir, otomobil firmaları da bu yarışı kazanmak için ellerinden geleni yapacaklardır. Henry Ford ve Lee Lacocca tarafından bir ekip kurulur ve bu ekip yarışı kazanmak için yola koyulurlar…

Asfaltın Kralları (2019) (Ford v Ferrari) | tt1950186 Filmi Imdb'den 310,000 kişi tarafından oylandı ve 8,1 puan aldı. Bu film için editör puanı %89 olarak belirlendi. İyi Seyirler!

Teknik Detaylar

Kod :
General
Unique ID                                : 27496285866789514304759502331079470901 (0x14AF978F58701BA327C8963BA312AF35)
Complete name                            : /home/BroserBros/Desktop/7/Asfaltın.Kralları.2019.FHD.BluRay.x264.TR.ENG.Filmbol.mkv
Format                                   : Matroska
Format version                           : Version 4
File size                                : 6.21 GiB
Duration                                 : 2 h 32 min
Overall bit rate mode                    : Variable
Overall bit rate                         : 5 828 kb/s
Movie name                               : Asfaltın Kralları - Ford v Ferrari - 2019 | Filmbol.org
Encoded date                             : UTC 2021-03-29 15:01:06
Writing application                      : mkvmerge v53.0.0 ('Fool's Gold') 64-bit
Writing library                          : libebml v1.4.1 + libmatroska v1.6.2

Video
ID                                       : 1
Format                                   : AVC
Format/Info                              : Advanced Video Codec
Format profile                           : [email protected]
Format settings                          : CABAC / 5 Ref Frames
Format settings, CABAC                   : Yes
Format settings, Reference frames        : 5 frames
Codec ID                                 : V_MPEG4/ISO/AVC
Duration                                 : 2 h 32 min
Bit rate mode                            : Variable
Bit rate                                 : 4 994 kb/s
Maximum bit rate                         : 8 000 kb/s
Width                                    : 1 920 pixels
Height                                   : 800 pixels
Display aspect ratio                     : 2.40:1
Frame rate mode                          : Constant
Frame rate                               : 23.976 (24000/1001) FPS
Standard                                 : NTSC
Color space                              : YUV
Chroma subsampling                       : 4:2:0
Bit depth                                : 8 bits
Scan type                                : Progressive
Bits/(Pixel*Frame)                       : 0.136
Stream size                              : 5.32 GiB (86%)
Title                                    : FHD - Filmbol.org
Language                                 : English
Default                                  : Yes
Forced                                   : No
Color range                              : Limited
Color primaries                          : BT.709
Transfer characteristics                 : BT.709
Matrix coefficients                      : BT.709

Audio #1
ID                                       : 2
Format                                   : AC-3
Format/Info                              : Audio Coding 3
Commercial name                          : Dolby Digital
Codec ID                                 : A_AC3
Duration                                 : 2 h 32 min
Bit rate mode                            : Constant
Bit rate                                 : 384 kb/s
Channel(s)                               : 6 channels
Channel layout                           : L R C LFE Ls Rs
Sampling rate                            : 48.0 kHz
Frame rate                               : 31.250 FPS (1536 SPF)
Compression mode                         : Lossy
Delay relative to video                  : 24 ms
Stream size                              : 419 MiB (7%)
Title                                    : Türkçe - Filmbol.org
Language                                 : Turkish
Service kind                             : Complete Main
Default                                  : Yes
Forced                                   : No

Audio #2
ID                                       : 3
Format                                   : AC-3
Format/Info                              : Audio Coding 3
Commercial name                          : Dolby Digital
Codec ID                                 : A_AC3
Duration                                 : 2 h 32 min
Bit rate mode                            : Constant
Bit rate                                 : 448 kb/s
Channel(s)                               : 6 channels
Channel layout                           : L R C LFE Ls Rs
Sampling rate                            : 48.0 kHz
Frame rate                               : 31.250 FPS (1536 SPF)
Compression mode                         : Lossy
Stream size                              : 489 MiB (8%)
Title                                    : Orjinal Dil - Filmbol.org
Language                                 : English
Service kind                             : Complete Main
Default                                  : No
Forced                                   : No

Text #1
ID                                       : 4
Format                                   : UTF-8
Codec ID                                 : S_TEXT/UTF8
Codec ID/Info                            : UTF-8 Plain Text
Duration                                 : 2 h 31 min
Bit rate                                 : 0 b/s
Count of elements                        : 22
Stream size                              : 853 Bytes (0%)
Title                                    : Türkçe FORCED - Filmbol.org
Language                                 : Turkish
Default                                  : Yes
Forced                                   : No

Text #2
ID                                       : 5
Format                                   : UTF-8
Codec ID                                 : S_TEXT/UTF8
Codec ID/Info                            : UTF-8 Plain Text
Duration                                 : 2 h 26 min
Bit rate                                 : 53 b/s
Count of elements                        : 1541
Stream size                              : 57.1 KiB (0%)
Title                                    : Türkçe - Filmbol.org
Language                                 : Turkish
Default                                  : No
Forced                                   : No

Film Detayları


 Asfaltın Kralları

 Asfaltın Kralları

 Asfaltın Kralları


Film Fragmanı


Film Detayları

Bunun için üzgünüz ancak, bu linke sadece premium üyeler erişebilir.

Filmbol Cloud







Hızlı Menü: