⤤ Premium'a Yükselt
Filmbol Forum Film İndir 1080P v Asfaltın Kralları (Ford v Ferrari) - 2019 - TR+ORG - 1080P | tt1950186

Filmbol TV kullanıma açıldı. Bu adresten giriş yapabilirsin: Giriş





Asfaltın Kralları (Ford v Ferrari) - 2019 - TR+ORG - 1080P | tt1950186
BroserBros
Asfaltın Kralları (Ford v Ferrari) - 2019 - TR+ORG - 1080P | tt1950186
20
1789
  • Derecelendirme: 0/5 - 0 oy
  • 1
  • 2
  • 3
  • 4
  • 5
Konuyu Okuyanlar:1 Ziyaretçi
Şuan Online!
Filmin Yayınlanma Tarihi: 2019 
WWW
Rapor Et!
Şuan Online!
BroserBros Kurucu Admin
*******
Admin



 Asfaltın Kralları



Asfaltın Kralları tamamen gerçek bir hikayeden konuyu ele alıyor. Eski zamanda geçen bu film 1966 yılında ki yarış hikayesine vurgu yapıyor. Ayrıca bu yarış tam olarak 24 Saat sürüyor ve zorlu bir parkuru vardır. Bu yarış yarışçılar için elbette önemlidir ancak sadece onlar için değildir, otomobil firmaları da bu yarışı kazanmak için ellerinden geleni yapacaklardır. Henry Ford ve Lee Lacocca tarafından bir ekip kurulur ve bu ekip yarışı kazanmak için yola koyulurlar…

Asfaltın Kralları (2019) (Ford v Ferrari) | tt1950186 Filmi Imdb'den 310,000 kişi tarafından oylandı ve 8,1 puan aldı. Bu film için editör puanı %89 olarak belirlendi. İyi Seyirler!

Teknik Detaylar

Kod :
General
Unique ID                                : 84036629263874483684733715989433393131 (0x3F38DDB6ECD762F7A6A2A4359D439FEB)
Complete name                            : /home/BroserBros/Desktop/7/Asfaltın.Kralları.2019.1080p.BluRay.x264.TR.ENG.Filmbol.mkv
Format                                   : Matroska
Format version                           : Version 4
File size                                : 2.95 GiB
Duration                                 : 2 h 32 min
Overall bit rate                         : 2 764 kb/s
Movie name                               : Asfaltın Kralları - Ford v Ferrari - 2019 | Filmbol.org
Encoded date                             : UTC 2021-03-29 14:41:24
Writing application                      : mkvmerge v53.0.0 ('Fool's Gold') 64-bit
Writing library                          : libebml v1.4.1 + libmatroska v1.6.2

Video
ID                                       : 1
Format                                   : AVC
Format/Info                              : Advanced Video Codec
Format profile                           : [email protected]
Format settings                          : CABAC / 4 Ref Frames
Format settings, CABAC                   : Yes
Format settings, Reference frames        : 4 frames
Codec ID                                 : V_MPEG4/ISO/AVC
Duration                                 : 2 h 32 min
Bit rate                                 : 2 250 kb/s
Width                                    : 1 920 pixels
Height                                   : 800 pixels
Display aspect ratio                     : 2.40:1
Frame rate mode                          : Constant
Frame rate                               : 23.976 (24000/1001) FPS
Color space                              : YUV
Chroma subsampling                       : 4:2:0
Bit depth                                : 8 bits
Scan type                                : Progressive
Bits/(Pixel*Frame)                       : 0.061
Stream size                              : 2.40 GiB (81%)
Title                                    : 1080P - Filmbol.org
Writing library                          : x264 core 158
Encoding settings                        : cabac=1 / ref=4 / deblock=1:-1:-1 / analyse=0x3:0x133 / me=umh / subme=9 / psy=1 / psy_rd=1.00:0.15 / mixed_ref=1 / me_range=24 / chroma_me=1 / trellis=2 / 8x8dct=1 / cqm=0 / deadzone=21,11 / fast_pskip=0 / chroma_qp_offset=-3 / threads=12 / lookahead_threads=1 / sliced_threads=0 / nr=0 / decimate=1 / interlaced=0 / bluray_compat=0 / constrained_intra=0 / bframes=3 / b_pyramid=2 / b_adapt=2 / b_bias=0 / direct=3 / weightb=1 / open_gop=0 / weightp=2 / keyint=250 / keyint_min=23 / scenecut=40 / intra_refresh=0 / rc_lookahead=60 / rc=2pass / mbtree=1 / bitrate=2250 / ratetol=1.0 / qcomp=0.60 / qpmin=0 / qpmax=69 / qpstep=4 / cplxblur=20.0 / qblur=0.5 / vbv_maxrate=31250 / vbv_bufsize=31250 / nal_hrd=none / filler=0 / ip_ratio=1.40 / aq=1:1.00
Default                                  : Yes
Forced                                   : No

Audio #1
ID                                       : 2
Format                                   : AAC LC
Format/Info                              : Advanced Audio Codec Low Complexity
Codec ID                                 : A_AAC-2
Duration                                 : 2 h 32 min
Bit rate                                 : 128 kb/s
Channel(s)                               : 2 channels
Channel layout                           : L R
Sampling rate                            : 48.0 kHz
Frame rate                               : 46.875 FPS (1024 SPF)
Compression mode                         : Lossy
Stream size                              : 140 MiB (5%)
Title                                    : Orjinal Dil - Filmbol.org
Language                                 : English
Default                                  : Yes
Forced                                   : No

Audio #2
ID                                       : 4
Format                                   : AC-3
Format/Info                              : Audio Coding 3
Commercial name                          : Dolby Digital
Codec ID                                 : A_AC3
Duration                                 : 2 h 32 min
Bit rate mode                            : Constant
Bit rate                                 : 384 kb/s
Channel(s)                               : 6 channels
Channel layout                           : L R C LFE Ls Rs
Sampling rate                            : 48.0 kHz
Frame rate                               : 31.250 FPS (1536 SPF)
Compression mode                         : Lossy
Stream size                              : 419 MiB (14%)
Title                                    : Türkçe - Filmbol.org
Language                                 : Turkish
Service kind                             : Complete Main
Default                                  : No
Forced                                   : No

Text #1
ID                                       : 3
Format                                   : UTF-8
Codec ID                                 : S_TEXT/UTF8
Codec ID/Info                            : UTF-8 Plain Text
Duration                                 : 2 h 31 min
Bit rate                                 : 0 b/s
Count of elements                        : 22
Stream size                              : 853 Bytes (0%)
Title                                    : Türkçe FORCED - Filmbol.org
Language                                 : Turkish
Default                                  : Yes
Forced                                   : No

Text #2
ID                                       : 5
Format                                   : UTF-8
Codec ID                                 : S_TEXT/UTF8
Codec ID/Info                            : UTF-8 Plain Text
Duration                                 : 2 h 26 min
Bit rate                                 : 53 b/s
Count of elements                        : 1541
Stream size                              : 57.1 KiB (0%)
Title                                    : Türkçe - Filmbol.org
Language                                 : Turkish
Default                                  : No
Forced                                   : No

Film Detayları


 Asfaltın Kralları

 Asfaltın Kralları

 Asfaltın Kralları


Film Fragmanı


Film İndir


Rar Şifresi: filmbol.org


Uptobox ile indir

1Fichier ile indir

1Fichier'den İndiremiyor musun? Tıklayın!












Şuan Offine!
Rapor Et!
Şuan Offine!
caner Süper Üye
***
Super Üye
  • Konular0
  • Mesajlar51
  • Rep puanı 0
teşekkürler
Şuan Offine!
Rapor Et!
Şuan Offine!
muda Uzman Üye
**
Uzman Üye
  • Konular0
  • Mesajlar7
  • Rep puanı 0
tsklr
Şuan Offine!
Rapor Et!
Şuan Offine!
ismahilo Uzman Üye
**
Uzman Üye
  • Konular0
  • Mesajlar15
  • Rep puanı 0
olmadı tekrar deniyorum
Şuan Offine!
Rapor Et!
Şuan Offine!
mt.aksoy Uzman Üye
**
Uzman Üye
  • Konular0
  • Mesajlar6
  • Rep puanı 0
Fort v ferreri

Foort
Şuan Offine!
Rapor Et!
Şuan Offine!
hakangumeler99 Uzman Üye
**
Uzman Üye
  • Konular0
  • Mesajlar7
  • Rep puanı 0
Süper
Şuan Offine!
Rapor Et!
Şuan Offine!
LORD 4 Uzman Üye
**
Uzman Üye
  • Konular0
  • Mesajlar6
  • Rep puanı 0
Süper
Şuan Offine!
Rapor Et!
Şuan Offine!
BlackJuan Süper Üye
***
Super Üye
  • Konular0
  • Mesajlar36
  • Rep puanı 0
eyw..

teşekkür.
Şuan Online!
Rapor Et!
Şuan Online!
BroserBros Kurucu Admin
*******
Admin
30.03.2021 Yönetici Notu:

Kırık linkler kontrol edildi, kaldırıldı ve yenilendi. Tüm linkler tamamen çalışır durumda.
Şuan Offine!
Rapor Et!
Şuan Offine!
Karabela_61 Üye
*
Üye
  • Konular0
  • Mesajlar21
  • Rep puanı 0
Tesekkurler admin.


Hızlı Menü: