Filmbol Forum Film İndir 1080P v Deadly Illusions (Deadly Illusions) - 2021 - TR+ORG - 1080P | tt7897330
Mega linklerinin şikayet edilmemesi için global erişime kapatıp sadece yorum yapanlara açıyoruz. Bu linkleri gizleme işlemini mecburen yapıyoruz ve yorum yapmanızın siteye değil size faydası vardır. Teşekürler yazmayı çok görüp, Random/Spam mesajlar atarak Mega linklerini açmaya çalışan kullanıcılara önce süresiz ban, devam ederse IP ban atacağız.
Filmbol'da moderatör olmak ister misiniz? Bizimle iletişime geçmek için tıklayın!
Deadly Illusions (Deadly Illusions) - 2021 - TR+ORG - 1080P | tt7897330
TheSteeL
Deadly Illusions (Deadly Illusions) - 2021 - TR+ORG - 1080P | tt7897330
0
44
  • Derecelendirme: 0/5 - 0 oy
  • 1
  • 2
  • 3
  • 4
  • 5
Konuyu Okuyanlar:1 Ziyaretçi
Şuan Online!
Filmin Yayınlanma Tarihi: 2021 
WWW
Şuan Online!
TheSteeL Süper Moderatör
*****
Süper Moderatör



 Deadly Illusions



Mary Morrison 2 çocuk sahibi ve iyi bir yazardır. Yazdığı kitaplar dünyanın her yerinde en çok satılan kitaplar arasında girmeyi çoğu zaman başarmaktadır. Fakat Mary çocukları yüzünden yeni kitaplar üretememeye başlar. Bu yüzden çocuklarına bir bakıcı tutar ve yeni kitabına tamamen odaklanır. Fakat o haddinden fazla isteklidir ve zamanla yazdığı yazılar ile gerçeklik arasındaki bağ bulanıklaşmaya başlar ve birbirine karışır...

Deadly Illusions (2021) (Deadly Illusions) | tt7897330 Filmi Imdb'den 7000 kişi tarafından oylandı ve 3,6 puan aldı. Bu film için editör puanı %45 olarak belirlendi. İyi Seyirler!

Teknik Detaylar

Kod :
General
Unique ID                                : 238456114755599822206023748899233769633 (0xB364FA28AA581F3F6E510E0D75DAA8A1)
Complete name                            : /home/TheSteel/Desktop/2/Deadly.Illusions.2021.1080p.NF.WEB-DL.x264.TR.ENG.Filmbol.mkv
Format                                   : Matroska
Format version                           : Version 4
File size                                : 2.08 GiB
Duration                                 : 1 h 54 min
Overall bit rate                         : 2 598 kb/s
Movie name                               : Deadly Illusions - 2021 | Filmbol.org
Encoded date                             : UTC 2021-03-28 14:26:24
Writing application                      : mkvmerge v31.0.0 ('Dolores In A Shoestand') 64-bit
Writing library                          : libebml v1.3.6 + libmatroska v1.4.9

Video
ID                                       : 1
Format                                   : AVC
Format/Info                              : Advanced Video Codec
Format profile                           : [email protected]
Format settings                          : CABAC / 2 Ref Frames
Format settings, CABAC                   : Yes
Format settings, Reference frames        : 2 frames
Codec ID                                 : V_MPEG4/ISO/AVC
Duration                                 : 1 h 54 min
Bit rate                                 : 2 020 kb/s
Width                                    : 1 920 pixels
Height                                   : 1 080 pixels
Display aspect ratio                     : 16:9
Frame rate mode                          : Constant
Frame rate                               : 23.976 (24000/1001) FPS
Color space                              : YUV
Chroma subsampling                       : 4:2:0
Bit depth                                : 8 bits
Scan type                                : Progressive
Bits/(Pixel*Frame)                       : 0.041
Stream size                              : 1.62 GiB (78%)
Title                                    : Deadly Illusions - 2021 | Filmbol.org
Default                                  : Yes
Forced                                   : No

Audio #1
ID                                       : 2
Format                                   : AC-3
Format/Info                              : Audio Coding 3
Commercial name                          : Dolby Digital
Codec ID                                 : A_AC3
Duration                                 : 1 h 54 min
Bit rate mode                            : Constant
Bit rate                                 : 384 kb/s
Channel(s)                               : 6 channels
Channel layout                           : L R C LFE Ls Rs
Sampling rate                            : 48.0 kHz
Frame rate                               : 31.250 FPS (1536 SPF)
Compression mode                         : Lossy
Stream size                              : 315 MiB (15%)
Title                                    : Deadly Illusions - 2021 | Filmbol.org
Language                                 : Turkish
Service kind                             : Complete Main
Default                                  : Yes
Forced                                   : No

Audio #2
ID                                       : 3
Format                                   : AC-3
Format/Info                              : Audio Coding 3
Commercial name                          : Dolby Digital
Codec ID                                 : A_AC3
Duration                                 : 1 h 54 min
Bit rate mode                            : Constant
Bit rate                                 : 192 kb/s
Channel(s)                               : 2 channels
Channel layout                           : L R
Sampling rate                            : 48.0 kHz
Frame rate                               : 31.250 FPS (1536 SPF)
Compression mode                         : Lossy
Stream size                              : 158 MiB (7%)
Title                                    : Deadly Illusions - 2021 | Filmbol.org
Language                                 : English
Service kind                             : Complete Main
Default                                  : No
Forced                                   : No

Text #1
ID                                       : 4
Format                                   : UTF-8
Codec ID                                 : S_TEXT/UTF8
Codec ID/Info                            : UTF-8 Plain Text
Duration                                 : 1 h 51 min
Bit rate                                 : 0 b/s
Count of elements                        : 30
Stream size                              : 811 Bytes (0%)
Title                                    : Deadly Illusions - 2021 | Filmbol.org
Language                                 : Turkish
Default                                  : Yes
Forced                                   : Yes

Text #2
ID                                       : 5
Format                                   : UTF-8
Codec ID                                 : S_TEXT/UTF8
Codec ID/Info                            : UTF-8 Plain Text
Duration                                 : 1 h 51 min
Bit rate                                 : 42 b/s
Count of elements                        : 1132
Stream size                              : 34.9 KiB (0%)
Title                                    : Deadly Illusions - 2021 | Filmbol.org
Language                                 : Turkish
Default                                  : No
Forced                                   : No

Film Detayları


 Deadly Illusions

 Deadly Illusions

 Deadly Illusions


Film Fragmanı


Film Detayları

Uptobox ile indir

1Fichier ile indir

1Fichier'den İndiremiyor musun? Tıklayın!


Mega linki şuan da gizli. Kullanıma açmak için konuya yorum yapın ve ardından sayfayı yenileyin.

Mega


Bunun için üzgünüz ancak, bu linke sadece premium üyeler erişebilir.

Filmbol Cloud







Konu ile Alakalı Benzer Konular
Konular Yazar Yorumlar Okunma Son Yorum
Filmin Yayınlanma Tarihi: 2021
Sen Hiç Ateşböceği Gördün mü? (Sen Hiç Atesböcegi Gördün mü?) - 2021 - TR+ORG - 1080P | tt13317694 TheSteeL 1 35 1 saat önce
Son Yorum: muradims
Filmin Yayınlanma Tarihi: 2015
Yeni Ahit (Le tout nouveau testament) - 2015 - TR+ORG - 1080P | tt3792960 TheSteeL 0 9 , Saat: 23:52
Son Yorum: TheSteeL
Filmin Yayınlanma Tarihi: 2015
Diriliş (The Revenant) - 2015 - TR+ORG - 1080P | tt1663202 BroserBros 5 3,152 , Saat: 19:43
Son Yorum: BroserBros
Filmin Yayınlanma Tarihi: 2018
Adalet 2 (The Equalizer 2) - 2018 - TR+ORG - 1080P | tt3766354 BroserBros 6 1,201 , Saat: 19:30
Son Yorum: BroserBros
Filmin Yayınlanma Tarihi: 2019
Aslan Kral (The Lion King) - 2019 - TR+ORG - 1080P | tt6105098 BroserBros 49 5,141 , Saat: 19:18
Son Yorum: BroserBros

Hızlı Menü: