Filmbol Forum Film İndir BRRip XviD v Deadly Illusions (Deadly Illusions) - 2021 - TR - BRRip XviD | tt7897330
Mega linklerinin şikayet edilmemesi için global erişime kapatıp sadece yorum yapanlara açıyoruz. Bu linkleri gizleme işlemini mecburen yapıyoruz ve yorum yapmanızın siteye değil size faydası vardır. Teşekürler yazmayı çok görüp, Random/Spam mesajlar atarak Mega linklerini açmaya çalışan kullanıcılara önce süresiz ban, devam ederse IP ban atacağız.
Filmbol'da moderatör olmak ister misiniz? Bizimle iletişime geçmek için tıklayın!
Deadly Illusions (Deadly Illusions) - 2021 - TR - BRRip XviD | tt7897330
TheSteeL
Deadly Illusions (Deadly Illusions) - 2021 - TR - BRRip XviD | tt7897330
0
101
  • Derecelendirme: 0/5 - 0 oy
  • 1
  • 2
  • 3
  • 4
  • 5
Konuyu Okuyanlar:1 Ziyaretçi
Şuan Online!
Filmin Yayınlanma Tarihi: 2021 
WWW
Şuan Online!
TheSteeL Süper Moderatör
*****
Süper Moderatör



 Deadly Illusions



Mary Morrison 2 çocuk sahibi ve iyi bir yazardır. Yazdığı kitaplar dünyanın her yerinde en çok satılan kitaplar arasında girmeyi çoğu zaman başarmaktadır. Fakat Mary çocukları yüzünden yeni kitaplar üretememeye başlar. Bu yüzden çocuklarına bir bakıcı tutar ve yeni kitabına tamamen odaklanır. Fakat o haddinden fazla isteklidir ve zamanla yazdığı yazılar ile gerçeklik arasındaki bağ bulanıklaşmaya başlar ve birbirine karışır...

Deadly Illusions (2021) (Deadly Illusions) | tt7897330 Filmi Imdb'den 7000 kişi tarafından oylandı ve 3,6 puan aldı. Bu film için editör puanı %45 olarak belirlendi. İyi Seyirler!

Teknik Detaylar

Kod :
General
Unique ID                                : 69732679518957790751689478605433470830 (0x3476068B055F78FA8C8486909A33FF6E)
Complete name                            : /home/TheSteel/Desktop/2/Deadly.Illusions.2021.HDRip.XViD.TR.Filmbol.avi
Format                                  : Matroska
Format version                          : Version 4
File size                                : 1.24 GiB
Duration                                : 1 h 54 min
Overall bit rate                        : 1 552 kb/s
Movie name                              : Deadly Illusions - 2021 | Filmbol.org
Encoded date                            : UTC 2021-03-28 14:30:58
Writing application                      : mkvmerge v31.0.0 ('Dolores In A Shoestand') 64-bit
Writing library                          : libebml v1.3.6 + libmatroska v1.4.9
FileExtension_Invalid                    : mkv mk3d mka mks

Video
ID                                      : 1
Format                                  : MPEG-4 Visual
Format profile                          : [email protected]
Format settings, BVOP                    : No
Format settings, QPel                    : No
Format settings, GMC                    : No warppoints
Format settings, Matrix                  : Default (H.263)
Codec ID                                : V_MS/VFW/FOURCC / XVID
Codec ID/Hint                            : XviD
Duration                                : 1 h 54 min
Bit rate                                : 1 422 kb/s
Width                                    : 720 pixels
Height                                  : 300 pixels
Display aspect ratio                    : 2.40:1
Frame rate mode                          : Constant
Frame rate                              : 23.976 FPS
Color space                              : YUV
Chroma subsampling                      : 4:2:0
Bit depth                                : 8 bits
Scan type                                : Progressive
Compression mode                        : Lossy
Bits/(Pixel*Frame)                      : 0.275
Stream size                              : 1.14 GiB (92%)
Title                                    : Deadly Illusions - 2021 | Filmbol.org
Writing library                          : Lavc58.35.100
Default                                  : Yes
Forced                                  : No

Audio
ID                                      : 2
Format                                  : MPEG Audio
Format version                          : Version 1
Format profile                          : Layer 3
Format settings                          : Joint stereo / MS Stereo
Codec ID                                : A_MPEG/L3
Codec ID/Hint                            : MP3
Duration                                : 1 h 54 min
Bit rate mode                            : Constant
Bit rate                                : 128 kb/s
Channel(s)                              : 2 channels
Sampling rate                            : 48.0 kHz
Frame rate                              : 41.667 FPS (1152 SPF)
Compression mode                        : Lossy
Stream size                              : 105 MiB (8%)
Title                                    : Deadly Illusions - 2021 | Filmbol.org
Default                                  : Yes
Forced                                  : No

Film Detayları


 Deadly Illusions

 Deadly Illusions

 Deadly Illusions


Film Fragmanı


Film Detayları


Uptobox ile indir

1Fichier ile indir

1Fichier'den İndiremiyor musun? Tıklayın!


Mega linki şuan da gizli. Kullanıma açmak için konuya yorum yapın ve ardından sayfayı yenileyin.

Mega


Bunun için üzgünüz ancak, bu linke sadece premium üyeler erişebilir.

Filmbol Cloud







Konu ile Alakalı Benzer Konular
Konular Yazar Yorumlar Okunma Son Yorum
Filmin Yayınlanma Tarihi: 2021
Donma Noktası (Below Zero) - 2021 - TR - BRRip XviD TheSteeL 4 92 , Saat: 01:39
Son Yorum: TheSteeL
Filmin Yayınlanma Tarihi: 2015
Yeni Ahit (Le tout nouveau testament) - 2015 - TR - BRRip XviD | tt3792960 TheSteeL 0 10 , Saat: 23:51
Son Yorum: TheSteeL
Filmin Yayınlanma Tarihi: 2015
Diriliş (The Revenant) - 2015 - TR - BRRip XviD | tt1663202 BroserBros 4 3,533 , Saat: 19:42
Son Yorum: BroserBros
Filmin Yayınlanma Tarihi: 2018
Adalet 2 (The Equalizer 2) - 2018 - TR - BRRip XviD | tt3766354 BroserBros 4 934 , Saat: 19:30
Son Yorum: BroserBros
Filmin Yayınlanma Tarihi: 2019
Aslan Kral (The Lion King) - 2019 - TR - BRRip XviD | tt6105098 BroserBros 10 2,196 , Saat: 19:18
Son Yorum: BroserBros

Hızlı Menü: