Filmbol Forum Film İndir 1080P v Kahramanca Kaybedenler (La odisea de los giles) - 2019 - TR+ORG - 1080P | tt10384744
Bildirimi Kapat
Server kaynaklı problemden dolayı ciddi bir sorun yaşadık. Şuanda forum ve portal aktif halde ancak bazı problemler hala devam ediyor. Problem gördüğünüz yerleri bize bildirmeniz çok önemli. Teşekkürler.

Bildirimi Kapat
Merhaba , site giderlerini bir nebze olsun karşılamak adına link kısaltma servisleri kullanmaya başladık. İndirme linkleri sizi ouo.io adresinde yönlendirecek, 3 saniye geçtikten sonra Get Link butonuna tıklayarak linke ulaşacaksınız. Premium üyeler bu durumdan etkilenmeyecektir.


Premium Üyelik Al

Kahramanca Kaybedenler (La odisea de los giles) - 2019 - TR+ORG - 1080P | tt10384744
TheSteeL
Kahramanca Kaybedenler (La odisea de los giles) - 2019 - TR+ORG - 1080P | tt10384744
0
107
  • Derecelendirme: 0/5 - 0 oy
  • 1
  • 2
  • 3
  • 4
  • 5
Konuyu Okuyanlar:1 Ziyaretçi
Şuan Online!
Filmin Yayınlanma Tarihi: 2019 
Şuan Online!
TheSteeL Chief Executive Officer
******
CEO


 Kahramanca Kaybedenler



Fermin Pelassi kariyerini bir dünya yıldızı olarak bitiremese de, iyi yerlere gelebilmiş ve sonunda emekli olmuştur. Kariyerine futbol yorumculuğu ya da teknik direktör ile devam edebilecekken, o farklı bir yol izleyerek karısı ile birlikte küçük bir kasabaya taşınmıştır. Burada kendini hayır işlerine ve topluma adayan Fermin Pelassi ve karısı Lidia, bir inşaat işi için kasaba genelinde para toplamaya başlar. Para, bir bankada toplanır ve yeterli miktara geldiğinde çekilerek inşaat yapılacaktır. Fakat Fermin yolun ortasında bir şey fark eder, parayı bankacılar sürekli çalmaktadır. Şimdi kasaba sakinleri için dava vaktidir...

Kahramanca Kaybedenler (2019) (La odisea de los giles) | tt10384744 Filmi Imdb'den 8500 kişi tarafından oylandı ve 7,2 puan aldı. Bu film için editör puanı %73 olarak belirlendi. İyi Seyirler!

Teknik Detaylar

Kod :
General
Unique ID                                : 279026652944989112003251305153051497523 (0xD1EA94205E19283810FD180E63081433)
Complete name                            : /home/TheSteel/Desktop/1/Kahramanca.Kaybedenler.2019.1080p.BluRay.x264.TR.SPA.Filmbol.mkv
Format                                   : Matroska
Format version                           : Version 4
File size                                : 2.33 GiB
Duration                                 : 1 h 55 min
Overall bit rate                         : 2 883 kb/s
Movie name                               : Kahramanca Kaybedenler - La odisea de los giles - 2019 | Filmbol.org
Encoded date                             : UTC 2021-03-28 14:08:27
Writing application                      : mkvmerge v31.0.0 ('Dolores In A Shoestand') 64-bit
Writing library                          : libebml v1.3.6 + libmatroska v1.4.9

Video
ID                                       : 1
Format                                   : AVC
Format/Info                              : Advanced Video Codec
Format profile                           : [email protected]
Format settings                          : CABAC / 4 Ref Frames
Format settings, CABAC                   : Yes
Format settings, Reference frames        : 4 frames
Codec ID                                 : V_MPEG4/ISO/AVC
Duration                                 : 1 h 55 min
Bit rate                                 : 2 500 kb/s
Width                                    : 1 920 pixels
Height                                   : 804 pixels
Display aspect ratio                     : 2.40:1
Frame rate mode                          : Constant
Frame rate                               : 24.000 FPS
Color space                              : YUV
Chroma subsampling                       : 4:2:0
Bit depth                                : 8 bits
Scan type                                : Progressive
Bits/(Pixel*Frame)                       : 0.067
Stream size                              : 2.02 GiB (87%)
Title                                    : Kahramanca Kaybedenler - La odisea de los giles - 2019 | Filmbol.org
Writing library                          : x264 core 152 r2851M ba24899
Encoding settings                        : cabac=1 / ref=4 / deblock=1:-1:-1 / analyse=0x3:0x113 / me=umh / subme=9 / psy=1 / psy_rd=1.00:0.15 / mixed_ref=1 / me_range=24 / chroma_me=1 / trellis=2 / 8x8dct=1 / cqm=0 / deadzone=21,11 / fast_pskip=1 / chroma_qp_offset=-3 / threads=16 / lookahead_threads=4 / sliced_threads=0 / nr=0 / decimate=1 / interlaced=0 / bluray_compat=0 / constrained_intra=0 / bframes=3 / b_pyramid=2 / b_adapt=2 / b_bias=0 / direct=3 / weightb=1 / open_gop=0 / weightp=2 / keyint=250 / keyint_min=25 / scenecut=40 / intra_refresh=0 / rc_lookahead=50 / rc=2pass / mbtree=1 / bitrate=2500 / ratetol=1.0 / qcomp=0.60 / qpmin=0 / qpmax=69 / qpstep=4 / cplxblur=20.0 / qblur=0.5 / vbv_maxrate=31250 / vbv_bufsize=31250 / nal_hrd=none / filler=0 / ip_ratio=1.40 / aq=3:1.00
Default                                  : Yes
Forced                                   : No

Audio #1
ID                                       : 2
Format                                   : AC-3
Format/Info                              : Audio Coding 3
Commercial name                          : Dolby Digital
Codec ID                                 : A_AC3
Duration                                 : 1 h 55 min
Bit rate mode                            : Constant
Bit rate                                 : 192 kb/s
Channel(s)                               : 2 channels
Channel layout                           : L R
Sampling rate                            : 48.0 kHz
Frame rate                               : 31.250 FPS (1536 SPF)
Compression mode                         : Lossy
Stream size                              : 158 MiB (7%)
Title                                    : Kahramanca Kaybedenler - La odisea de los giles - 2019 | Filmbol.org
Language                                 : Turkish
Service kind                             : Complete Main
Default                                  : Yes
Forced                                   : No

Audio #2
ID                                       : 3
Format                                   : AC-3
Format/Info                              : Audio Coding 3
Commercial name                          : Dolby Digital
Codec ID                                 : A_AC3
Duration                                 : 1 h 55 min
Bit rate mode                            : Constant
Bit rate                                 : 192 kb/s
Channel(s)                               : 2 channels
Channel layout                           : L R
Sampling rate                            : 48.0 kHz
Frame rate                               : 31.250 FPS (1536 SPF)
Compression mode                         : Lossy
Stream size                              : 159 MiB (7%)
Title                                    : Kahramanca Kaybedenler - La odisea de los giles - 2019 | Filmbol.org
Language                                 : Spanish
Service kind                             : Complete Main
Default                                  : No
Forced                                   : No

Text
ID                                       : 4
Format                                   : UTF-8
Codec ID                                 : S_TEXT/UTF8
Codec ID/Info                            : UTF-8 Plain Text
Duration                                 : 1 h 47 min
Bit rate                                 : 64 b/s
Count of elements                        : 1345
Stream size                              : 50.5 KiB (0%)
Title                                    : Kahramanca Kaybedenler - La odisea de los giles - 2019 | Filmbol.org
Language                                 : Turkish
Default                                  : No
Forced                                   : No

Film Detayları


 Kahramanca Kaybedenler

 Kahramanca Kaybedenler

 Kahramanca Kaybedenler


Film Fragmanı


Film İndir



Zip Şifresi: filmbol.org Aşağıdaki butona tıklayarak kopyalabilirsiniz.


Uptobox ile indir

1Fichier ile indir

1Fichier'den İndiremiyor musun? Tıklayın!





Filmbol Cloud

Bunun için üzgünüz ancak, bu linke sadece premium üyeler erişebilir.




WWW


Hızlı Menü: