Filmbol Forum Film İndir BRRip XviD v Kahramanca Kaybedenler (La odisea de los giles) - 2019 - TR - BRRip XviD | tt10384744
Mega linklerinin şikayet edilmemesi için global erişime kapatıp sadece yorum yapanlara açıyoruz. Bu linkleri gizleme işlemini mecburen yapıyoruz ve yorum yapmanızın siteye değil size faydası vardır. Teşekürler yazmayı çok görüp, Random/Spam mesajlar atarak Mega linklerini açmaya çalışan kullanıcılara önce süresiz ban, devam ederse IP ban atacağız.
Filmbol'da moderatör olmak ister misiniz? Bizimle iletişime geçmek için tıklayın!
Kahramanca Kaybedenler (La odisea de los giles) - 2019 - TR - BRRip XviD | tt10384744
TheSteeL
Kahramanca Kaybedenler (La odisea de los giles) - 2019 - TR - BRRip XviD | tt10384744
0
45
  • Derecelendirme: 0/5 - 0 oy
  • 1
  • 2
  • 3
  • 4
  • 5
Konuyu Okuyanlar:1 Ziyaretçi
Şuan Online!
Filmin Yayınlanma Tarihi: 2019 
WWW
Şuan Online!
TheSteeL Süper Moderatör
*****
Süper Moderatör



 Kahramanca Kaybedenler



Fermin Pelassi kariyerini bir dünya yıldızı olarak bitiremese de, iyi yerlere gelebilmiş ve sonunda emekli olmuştur. Kariyerine futbol yorumculuğu ya da teknik direktör ile devam edebilecekken, o farklı bir yol izleyerek karısı ile birlikte küçük bir kasabaya taşınmıştır. Burada kendini hayır işlerine ve topluma adayan Fermin Pelassi ve karısı Lidia, bir inşaat işi için kasaba genelinde para toplamaya başlar. Para, bir bankada toplanır ve yeterli miktara geldiğinde çekilerek inşaat yapılacaktır. Fakat Fermin yolun ortasında bir şey fark eder, parayı bankacılar sürekli çalmaktadır. Şimdi kasaba sakinleri için dava vaktidir...

Kahramanca Kaybedenler (2019) (La odisea de los giles) | tt10384744 Filmi Imdb'den 8500 kişi tarafından oylandı ve 7,2 puan aldı. Bu film için editör puanı %73 olarak belirlendi. İyi Seyirler!

Teknik Detaylar

Kod :
General
Unique ID                                : 49776245056458685846739790714305406026 (0x25728E5BBD671C835299CBE816E6644A)
Complete name                            : /home/TheSteel/Desktop/1/Kahramanca.Kaybedenler.2019.BDRip.XViD.TR.Filmbol.avi
Format                                   : Matroska
Format version                           : Version 4
File size                                : 1.25 GiB
Duration                                 : 1 h 55 min
Overall bit rate                         : 1 545 kb/s
Movie name                               : Kahramanca Kaybedenler - La odisea de los giles - 2019 | Filmbol.org
Encoded date                             : UTC 2021-03-28 14:16:48
Writing application                      : mkvmerge v31.0.0 ('Dolores In A Shoestand') 64-bit
Writing library                          : libebml v1.3.6 + libmatroska v1.4.9
FileExtension_Invalid                    : mkv mk3d mka mks

Video
ID                                       : 1
Format                                   : MPEG-4 Visual
Format profile                           : Advanced [email protected]
Format settings                          : BVOP1 / Custom Matrix
Format settings, BVOP                    : 1
Format settings, QPel                    : No
Format settings, GMC                     : No warppoints
Format settings, Matrix                  : Custom
Codec ID                                 : V_MS/VFW/FOURCC / XVID
Codec ID/Hint                            : XviD
Duration                                 : 1 h 55 min
Bit rate                                 : 1 415 kb/s
Width                                    : 720 pixels
Height                                   : 304 pixels
Display aspect ratio                     : 2.35:1
Frame rate mode                          : Constant
Frame rate                               : 24.000 FPS
Color space                              : YUV
Chroma subsampling                       : 4:2:0
Bit depth                                : 8 bits
Scan type                                : Progressive
Compression mode                         : Lossy
Bits/(Pixel*Frame)                       : 0.269
Stream size                              : 1.14 GiB (92%)
Title                                    : Kahramanca Kaybedenler - La odisea de los giles - 2019 | Filmbol.org
Writing library                          : XviD 69
Default                                  : Yes
Forced                                   : No

Audio
ID                                       : 2
Format                                   : MPEG Audio
Format version                           : Version 1
Format profile                           : Layer 3
Format settings                          : Joint stereo / MS Stereo
Codec ID                                 : A_MPEG/L3
Codec ID/Hint                            : MP3
Duration                                 : 1 h 55 min
Bit rate mode                            : Constant
Bit rate                                 : 128 kb/s
Channel(s)                               : 2 channels
Sampling rate                            : 48.0 kHz
Frame rate                               : 41.667 FPS (1152 SPF)
Compression mode                         : Lossy
Stream size                              : 106 MiB (8%)
Title                                    : Kahramanca Kaybedenler - La odisea de los giles - 2019 | Filmbol.org
Default                                  : Yes
Forced                                   : No

Film Detayları


 Kahramanca Kaybedenler

 Kahramanca Kaybedenler

 Kahramanca Kaybedenler


Film Fragmanı


Film Detayları


Uptobox ile indir

1Fichier ile indir

1Fichier'den İndiremiyor musun? Tıklayın!


Mega linki şuan da gizli. Kullanıma açmak için konuya yorum yapın ve ardından sayfayı yenileyin.

Mega


Bunun için üzgünüz ancak, bu linke sadece premium üyeler erişebilir.

Filmbol Cloud







Konu ile Alakalı Benzer Konular
Konular Yazar Yorumlar Okunma Son Yorum
Filmin Yayınlanma Tarihi: 2021
Donma Noktası (Below Zero) - 2021 - TR - BRRip XviD TheSteeL 4 92 11 saat önce
Son Yorum: TheSteeL
Filmin Yayınlanma Tarihi: 2015
Yeni Ahit (Le tout nouveau testament) - 2015 - TR - BRRip XviD | tt3792960 TheSteeL 0 8 , Saat: 23:51
Son Yorum: TheSteeL
Filmin Yayınlanma Tarihi: 2015
Diriliş (The Revenant) - 2015 - TR - BRRip XviD | tt1663202 BroserBros 4 3,531 , Saat: 19:42
Son Yorum: BroserBros
Filmin Yayınlanma Tarihi: 2018
Adalet 2 (The Equalizer 2) - 2018 - TR - BRRip XviD | tt3766354 BroserBros 4 933 , Saat: 19:30
Son Yorum: BroserBros
Filmin Yayınlanma Tarihi: 2019
Aslan Kral (The Lion King) - 2019 - TR - BRRip XviD | tt6105098 BroserBros 10 2,195 , Saat: 19:18
Son Yorum: BroserBros

Hızlı Menü: