Filmbol Forum Film İndir 1080P v Lanetli Konak (The Lodgers) - 2017 - TR+ORG - 1080P | tt4399952
Bildirimi Kapat
Server kaynaklı problemden dolayı ciddi bir sorun yaşadık. Şuanda forum ve portal aktif halde ancak bazı problemler hala devam ediyor. Problem gördüğünüz yerleri bize bildirmeniz çok önemli. Teşekkürler.

Bildirimi Kapat
Merhaba , site giderlerini bir nebze olsun karşılamak adına link kısaltma servisleri kullanmaya başladık. İndirme linkleri sizi ouo.io adresinde yönlendirecek, 3 saniye geçtikten sonra Get Link butonuna tıklayarak linke ulaşacaksınız. Premium üyeler bu durumdan etkilenmeyecektir.


Premium Üyelik Al

Lanetli Konak (The Lodgers) - 2017 - TR+ORG - 1080P | tt4399952
TheSteeL
Lanetli Konak (The Lodgers) - 2017 - TR+ORG - 1080P | tt4399952
2
211
  • Derecelendirme: 0/5 - 0 oy
  • 1
  • 2
  • 3
  • 4
  • 5
Konuyu Okuyanlar:1 Ziyaretçi
Şuan Online!
Filmin Yayınlanma Tarihi: 2017 
Şuan Online!
TheSteeL Chief Executive Officer
******
CEO


 Lanetli Konak



Rachel ve Edward bir kasabada normal bir hayat yaşamak isteyen ikiz kardeşlerdir. Fakat bulundukları ev lanetlidir ve her gece garip bir varlık tarafından ziyaret edilir. Bu durumdan çok korkan ikizler, zamanla alışmaya başlar. Bu varlık ikizlere 3 şart koşar. Birincisi evden kaçmak yasak, ikincisi gece yataktan çıkmak yasak, üçüncüsü ise eve başka bir insan almak yasak. Eğer bu yasaklara uyulmazsa birinden birinin canı fena yanacaktır. Bu yüzden kardeşler kurallara çok dikkat eder. Fakat ikizlerden birisi bir çocuğa aşık olur ve kuralları çiğnemeye başlar...

Lanetli Konak (2017) (The Lodgers) | tt4399952 Filmi Imdb'den 9000 kişi tarafından oylandı ve 5,1 puan aldı. Bu film için editör puanı %64 olarak belirlendi. İyi Seyirler!

Teknik Detaylar

Kod :
General
Unique ID                                : 25579806124002380900604210323940892228 (0x133E7DD03ACFFA5FFE370E74B32EDE44)
Complete name                            : /home/TheSteel/Desktop/2/Lanetli.Konak.2017.1080p.BLURAY.x264.TR.ENG.Filmbol.mkv
Format                                   : Matroska
Format version                           : Version 4
File size                                : 1.95 GiB
Duration                                 : 1 h 33 min
Overall bit rate                         : 2 985 kb/s
Movie name                               : The Lodgers - Lanetli Konak - 2017 | Filmbol.org
Encoded date                             : UTC 2021-03-26 16:39:19
Writing application                      : mkvmerge v31.0.0 ('Dolores In A Shoestand') 64-bit
Writing library                          : libebml v1.3.6 + libmatroska v1.4.9

Video
ID                                       : 1
Format                                   : AVC
Format/Info                              : Advanced Video Codec
Format profile                           : [email protected]
Format settings                          : CABAC / 4 Ref Frames
Format settings, CABAC                   : Yes
Format settings, Reference frames        : 4 frames
Codec ID                                 : V_MPEG4/ISO/AVC
Duration                                 : 1 h 33 min
Bit rate                                 : 2 599 kb/s
Width                                    : 1 920 pixels
Height                                   : 800 pixels
Display aspect ratio                     : 2.40:1
Frame rate mode                          : Constant
Frame rate                               : 23.976 (24000/1001) FPS
Color space                              : YUV
Chroma subsampling                       : 4:2:0
Bit depth                                : 8 bits
Scan type                                : Progressive
Bits/(Pixel*Frame)                       : 0.071
Stream size                              : 1.70 GiB (87%)
Title                                    : The Lodgers - Lanetli Konak - 2017 | Filmbol.org
Writing library                          : x264 core 152 r2851 ba24899
Encoding settings                        : cabac=1 / ref=3 / deblock=1:0:0 / analyse=0x3:0x113 / me=hex / subme=7 / psy=1 / psy_rd=1.00:0.00 / mixed_ref=1 / me_range=16 / chroma_me=1 / trellis=1 / 8x8dct=1 / cqm=0 / deadzone=21,11 / fast_pskip=1 / chroma_qp_offset=-2 / threads=12 / lookahead_threads=2 / sliced_threads=0 / nr=0 / decimate=1 / interlaced=0 / bluray_compat=0 / constrained_intra=0 / bframes=3 / b_pyramid=2 / b_adapt=1 / b_bias=0 / direct=1 / weightb=1 / open_gop=0 / weightp=2 / keyint=240 / keyint_min=23 / scenecut=40 / intra_refresh=0 / rc_lookahead=40 / rc=2pass / mbtree=1 / bitrate=2599 / ratetol=1.0 / qcomp=0.60 / qpmin=0 / qpmax=69 / qpstep=4 / cplxblur=20.0 / qblur=0.5 / vbv_maxrate=62500 / vbv_bufsize=78125 / nal_hrd=none / filler=0 / ip_ratio=1.40 / aq=1:1.00
Default                                  : Yes
Forced                                   : No

Audio #1
ID                                       : 2
Format                                   : AC-3
Format/Info                              : Audio Coding 3
Commercial name                          : Dolby Digital
Codec ID                                 : A_AC3
Duration                                 : 1 h 33 min
Bit rate mode                            : Constant
Bit rate                                 : 192 kb/s
Channel(s)                               : 2 channels
Channel layout                           : L R
Sampling rate                            : 48.0 kHz
Frame rate                               : 31.250 FPS (1536 SPF)
Compression mode                         : Lossy
Stream size                              : 128 MiB (6%)
Title                                    : The Lodgers - Lanetli Konak - 2017 | Filmbol.org
Language                                 : Turkish
Service kind                             : Complete Main
Default                                  : Yes
Forced                                   : No

Audio #2
ID                                       : 3
Format                                   : AC-3
Format/Info                              : Audio Coding 3
Commercial name                          : Dolby Digital
Codec ID                                 : A_AC3
Duration                                 : 1 h 33 min
Bit rate mode                            : Constant
Bit rate                                 : 192 kb/s
Channel(s)                               : 2 channels
Channel layout                           : L R
Sampling rate                            : 48.0 kHz
Frame rate                               : 31.250 FPS (1536 SPF)
Compression mode                         : Lossy
Stream size                              : 128 MiB (6%)
Title                                    : The Lodgers - Lanetli Konak - 2017 | Filmbol.org
Language                                 : English
Service kind                             : Complete Main
Default                                  : No
Forced                                   : No

Text
ID                                       : 4
Format                                   : UTF-8
Codec ID                                 : S_TEXT/UTF8
Codec ID/Info                            : UTF-8 Plain Text
Duration                                 : 1 h 26 min
Bit rate                                 : 30 b/s
Count of elements                        : 652
Stream size                              : 19.4 KiB (0%)
Title                                    : The Lodgers - Lanetli Konak - 2017 | Filmbol.org
Language                                 : Turkish
Default                                  : No
Forced                                   : No

Film Detayları


 Lanetli Konak

 Lanetli Konak

 Lanetli Konak


Film Fragmanı


Film İndir



Zip Şifresi: filmbol.org Aşağıdaki butona tıklayarak kopyalabilirsiniz.


Uptobox ile indir

1Fichier ile indir

1Fichier'den İndiremiyor musun? Tıklayın!






Filmbol Cloud

Bunun için üzgünüz ancak, bu linke sadece premium üyeler erişebilir.




WWW
Şuan Offine!
Şuan Offine!
Ugur_1988 Eski Premium Üye
***
Eski PR Üye
  • Konular11
  • Mesajlar101
  • Rep puanı 23
10 numara site
Şuan Online!
Şuan Online!
TheSteeL Chief Executive Officer
******
CEO
(31-03-2021, Saat: 18:25)Ugur_1988 Adlı Kullanıcıdan Alıntı: 10 numara site
Teşekkürler İyi Seyirler


Hızlı Menü: