Filmbol Forum Film İndir BRRip XviD v Lanetli Konak (The Lodgers) - 2017 - TR - BRRip XviD | tt4399952

Premium Üyelik Al

Bildirimi Kapat
Mega linklerinin şikayet edilmemesi için global erişime kapatıp sadece yorum yapanlara açıyoruz. Bu linkleri gizleme işlemini mecburen yapıyoruz ve yorum yapmanızın siteye değil size faydası vardır. Teşekkürler yazmayı çok görüp, Random/Spam/Anlamsız mesajlar atarak forumu kirletip Mega linklerini açmaya çalışan kullanıcılara süresiz ban atacağız.


Lanetli Konak (The Lodgers) - 2017 - TR - BRRip XviD | tt4399952
TheSteeL
Lanetli Konak (The Lodgers) - 2017 - TR - BRRip XviD | tt4399952
0
98
  • Derecelendirme: 0/5 - 0 oy
  • 1
  • 2
  • 3
  • 4
  • 5
Konuyu Okuyanlar:1 Ziyaretçi
Şuan Online!
Filmin Yayınlanma Tarihi: 2017 
WWW
Şuan Online!
TheSteeL Süper Moderatör
*****
Süper Moderatör



 Lanetli Konak



Rachel ve Edward bir kasabada normal bir hayat yaşamak isteyen ikiz kardeşlerdir. Fakat bulundukları ev lanetlidir ve her gece garip bir varlık tarafından ziyaret edilir. Bu durumdan çok korkan ikizler, zamanla alışmaya başlar. Bu varlık ikizlere 3 şart koşar. Birincisi evden kaçmak yasak, ikincisi gece yataktan çıkmak yasak, üçüncüsü ise eve başka bir insan almak yasak. Eğer bu yasaklara uyulmazsa birinden birinin canı fena yanacaktır. Bu yüzden kardeşler kurallara çok dikkat eder. Fakat ikizlerden birisi bir çocuğa aşık olur ve kuralları çiğnemeye başlar...

Lanetli Konak (2017) (The Lodgers) | tt4399952 Filmi Imdb'den 9000 kişi tarafından oylandı ve 5,1 puan aldı. Bu film için editör puanı %64 olarak belirlendi. İyi Seyirler!

Teknik Detaylar

Kod :
General
Unique ID                                : 246146923816347636887413637038828568241 (0xB92E2C5239E1DFF586D161A5894E3EB1)
Complete name                            : /home/TheSteel/Desktop/2/Lanetli.Konak.2017.BDRip.XViD.TR.Filmbol.avi
Format                                   : Matroska
Format version                           : Version 4
File size                                : 1.41 GiB
Duration                                 : 1 h 33 min
Overall bit rate                         : 2 165 kb/s
Movie name                               : The Lodgers - Lanetli Konak - 2017 | Filmbol.org
Encoded date                             : UTC 2021-03-26 16:43:09
Writing application                      : mkvmerge v31.0.0 ('Dolores In A Shoestand') 64-bit
Writing library                          : libebml v1.3.6 + libmatroska v1.4.9
FileExtension_Invalid                    : mkv mk3d mka mks

Video
ID                                       : 1
Format                                   : MPEG-4 Visual
Format profile                           : Advanced [email protected]
Format settings                          : BVOP1
Format settings, BVOP                    : 1
Format settings, QPel                    : No
Format settings, GMC                     : No warppoints
Format settings, Matrix                  : Default (H.263)
Codec ID                                 : V_MS/VFW/FOURCC / XVID
Codec ID/Hint                            : XviD
Duration                                 : 1 h 33 min
Bit rate                                 : 2 036 kb/s
Width                                    : 720 pixels
Height                                   : 304 pixels
Display aspect ratio                     : 2.35:1
Frame rate mode                          : Constant
Frame rate                               : 23.976 (24000/1001) FPS
Color space                              : YUV
Chroma subsampling                       : 4:2:0
Bit depth                                : 8 bits
Scan type                                : Progressive
Compression mode                         : Lossy
Bits/(Pixel*Frame)                       : 0.388
Stream size                              : 1.33 GiB (94%)
Title                                    : The Lodgers - Lanetli Konak - 2017 | Filmbol.org
Writing library                          : XviD 67
Default                                  : Yes
Forced                                   : No

Audio
ID                                       : 2
Format                                   : MPEG Audio
Format version                           : Version 1
Format profile                           : Layer 3
Format settings                          : Joint stereo / MS Stereo
Codec ID                                 : A_MPEG/L3
Codec ID/Hint                            : MP3
Duration                                 : 1 h 33 min
Bit rate mode                            : Constant
Bit rate                                 : 128 kb/s
Channel(s)                               : 2 channels
Sampling rate                            : 48.0 kHz
Frame rate                               : 41.667 FPS (1152 SPF)
Compression mode                         : Lossy
Stream size                              : 85.5 MiB (6%)
Title                                    : The Lodgers - Lanetli Konak - 2017 | Filmbol.org
Default                                  : Yes
Forced                                   : No

Film Detayları


 Lanetli Konak

 Lanetli Konak

 Lanetli Konak


Film Fragmanı


Film Detayları


Uptobox ile indir

1Fichier ile indir

1Fichier'den İndiremiyor musun? Tıklayın!


Mega linki şuan da gizli. Kullanıma açmak için konuya yorum yapın ve ardından sayfayı yenileyin.

Mega


Bunun için üzgünüz ancak, bu linke sadece premium üyeler erişebilir.

Filmbol Cloud







Hızlı Menü: