Filmbol Forum Film İndir 720P v Kırk Yalan (Kirk Yalan) - 2019 - TR+ORG - 720P | tt11402172
Bildirimi Kapat
Üyelik alımları açıldı.


Bildirimi Kapat
Mega linklerinin şikayet edilmemesi için global erişime kapatıp sadece yorum yapanlara açıyoruz. Bu linkleri gizleme işlemini mecburen yapıyoruz ve yorum yapmanızın siteye değil size faydası vardır. Teşekkürler yazmayı çok görüp, Random/Spam/Anlamsız mesajlar atarak forumu kirletip Mega linklerini açmaya çalışan kullanıcılara süresiz ban atacağız.

Premium Üyelik Al

Kırk Yalan (Kirk Yalan) - 2019 - TR+ORG - 720P | tt11402172
TheSteeL
Kırk Yalan (Kirk Yalan) - 2019 - TR+ORG - 720P | tt11402172
2
128
  • Derecelendirme: 0/5 - 0 oy
  • 1
  • 2
  • 3
  • 4
  • 5
Konuyu Okuyanlar:1 Ziyaretçi
Şuan Online!
Filmin Yayınlanma Tarihi: 2019 
WWW
Şuan Online!
TheSteeL Süper Moderatör
*****
Süper Moderatör



 Kırk Yalan



Tahsin sıradan biri olmasına karşın ilginç bir yeteneğe sahiptir. Çevresindeki herkes onun yalan söylediğini bilir. Tahsin de bunun farkında olsa da yine de yalan söylemeye devam eder. İşin garip tarafı, tahsinin yalanları herkes tarafından bilinse de, yine aynı kişiler Tahsine inanmaya devam eder. Onun bu huyu, kan kardeşi Sadık ile çeşitli maceralar yaşamasına sebep olur.

Kırk Yalan (2019) (Kirk Yalan) | tt11402172 Filmi Imdb'den 700 kişi tarafından oylandı ve 3,0 puan aldı. Bu film için editör puanı %55, olarak belirlendi. İyi Seyirler!

Teknik Detaylar

Kod :
General
Unique ID                                : 174036627912108210258304212111054386813 (0x82EE3C3D61B905F39B2260EA1DCCB67D)
Complete name                            : /home/TheSteel/Desktop/1/KırkYalan.2019.720p.WEB-DL.x264.Filmbol.mkv
Format                                   : Matroska
Format version                           : Version 4
File size                                : 1.14 GiB
Duration                                 : 1 h 40 min
Overall bit rate                         : 1 629 kb/s
Movie name                               : Kırk Yalan - 2019 | Filmbol.org
Encoded date                             : UTC 2021-03-26 16:31:42
Writing application                      : mkvmerge v31.0.0 ('Dolores In A Shoestand') 64-bit
Writing library                          : libebml v1.3.6 + libmatroska v1.4.9

Video
ID                                       : 1
Format                                   : AVC
Format/Info                              : Advanced Video Codec
Format profile                           : [email protected]
Format settings                          : CABAC / 2 Ref Frames
Format settings, CABAC                   : Yes
Format settings, Reference frames        : 2 frames
Format settings, GOP                     : M=1, N=25
Codec ID                                 : V_MPEG4/ISO/AVC
Duration                                 : 1 h 40 min
Bit rate                                 : 1 435 kb/s
Width                                    : 1 280 pixels
Height                                   : 720 pixels
Display aspect ratio                     : 16:9
Frame rate mode                          : Constant
Frame rate                               : 24.000 FPS
Color space                              : YUV
Chroma subsampling                       : 4:2:0
Bit depth                                : 8 bits
Scan type                                : Progressive
Bits/(Pixel*Frame)                       : 0.065
Stream size                              : 1.01 GiB (88%)
Title                                    : Kırk Yalan - 2019 | Filmbol.org
Default                                  : Yes
Forced                                   : No

Audio
ID                                       : 2
Format                                   : AC-3
Format/Info                              : Audio Coding 3
Commercial name                          : Dolby Digital
Codec ID                                 : A_AC3
Duration                                 : 1 h 40 min
Bit rate mode                            : Constant
Bit rate                                 : 192 kb/s
Channel(s)                               : 2 channels
Channel layout                           : L R
Sampling rate                            : 48.0 kHz
Frame rate                               : 31.250 FPS (1536 SPF)
Compression mode                         : Lossy
Stream size                              : 138 MiB (12%)
Title                                    : Kırk Yalan - 2019 | Filmbol.org
Language                                 : Turkish
Service kind                             : Complete Main
Default                                  : Yes
Forced                                   : No

Text
ID                                       : 3
Format                                   : UTF-8
Codec ID                                 : S_TEXT/UTF8
Codec ID/Info                            : UTF-8 Plain Text
Duration                                 : 14 min 56 s
Bit rate                                 : 1 b/s
Count of elements                        : 10
Stream size                              : 124 Bytes (0%)
Title                                    : Kırk Yalan - 2019 | Filmbol.org
Language                                 : Turkish
Default                                  : Yes
Forced                                   : Yes

Film Detayları


 Kırk Yalan

 Kırk Yalan

 Kırk Yalan


Film Fragmanı


Film Detayları

Uptobox ile indir

1Fichier ile indir

1Fichier'den İndiremiyor musun? Tıklayın!


Mega linki şuan da gizli. Kullanıma açmak için konuya yorum yapın ve ardından sayfayı yenileyin.

Mega


Bunun için üzgünüz ancak, bu linke sadece premium üyeler erişebilir.

Filmbol Cloud





Şuan Offine!
Şuan Offine!
Soner Laz Yeni Üye
*
Üye

  • Konular0
  • Mesajlar1
  • Rep puanı 0
Teşekkürler
Şuan Online!
Şuan Online!
TheSteeL Süper Moderatör
*****
Süper Moderatör

(11-04-2021, Saat: 23:47)Soner Laz Adlı Kullanıcıdan Alıntı: Teşekkürler
İyi Seyirler


Hızlı Menü: