Filmbol Forum Film İndir BRRip XviD v Kırk Yalan (Kirk Yalan) - 2019 - TR - BRRip XviD | tt11402172
Bildirimi Kapat
Üyelik alımları açıldı.


Bildirimi Kapat
Mega linklerinin şikayet edilmemesi için global erişime kapatıp sadece yorum yapanlara açıyoruz. Bu linkleri gizleme işlemini mecburen yapıyoruz ve yorum yapmanızın siteye değil size faydası vardır. Teşekkürler yazmayı çok görüp, Random/Spam/Anlamsız mesajlar atarak forumu kirletip Mega linklerini açmaya çalışan kullanıcılara süresiz ban atacağız.

Premium Üyelik Al

Kırk Yalan (Kirk Yalan) - 2019 - TR - BRRip XviD | tt11402172
TheSteeL
Kırk Yalan (Kirk Yalan) - 2019 - TR - BRRip XviD | tt11402172
0
92
  • Derecelendirme: 0/5 - 0 oy
  • 1
  • 2
  • 3
  • 4
  • 5
Konuyu Okuyanlar:1 Ziyaretçi
Şuan Online!
Filmin Yayınlanma Tarihi: 2019 
WWW
Şuan Online!
TheSteeL Süper Moderatör
*****
Süper Moderatör




 Kırk Yalan



Tahsin sıradan biri olmasına karşın ilginç bir yeteneğe sahiptir. Çevresindeki herkes onun yalan söylediğini bilir. Tahsin de bunun farkında olsa da yine de yalan söylemeye devam eder. İşin garip tarafı, tahsinin yalanları herkes tarafından bilinse de, yine aynı kişiler Tahsine inanmaya devam eder. Onun bu huyu, kan kardeşi Sadık ile çeşitli maceralar yaşamasına sebep olur.

Kırk Yalan (2019) (Kirk Yalan) | tt11402172 Filmi Imdb'den 700 kişi tarafından oylandı ve 3,0 puan aldı. Bu film için editör puanı %55, olarak belirlendi. İyi Seyirler!

Teknik Detaylar

Kod :
General
Unique ID                                : 47729995435370041638435886083492509626 (0x23E876767C469B1B5B85FC52DDF377BA)
Complete name                            : /home/TheSteel/Desktop/1/KırkYalan.2019.HDRip.XViD.Filmbol.avi
Format                                  : Matroska
Format version                          : Version 4
File size                                : 1.20 GiB
Duration                                : 1 h 40 min
Overall bit rate                        : 1 707 kb/s
Movie name                              : Kırk Yalan - 2019 | Filmbol.org
Encoded date                            : UTC 2021-03-26 16:32:54
Writing application                      : mkvmerge v31.0.0 ('Dolores In A Shoestand') 64-bit
Writing library                          : libebml v1.3.6 + libmatroska v1.4.9
FileExtension_Invalid                    : mkv mk3d mka mks

Video
ID                                      : 1
Format                                  : MPEG-4 Visual
Format profile                          : Advanced [email protected]
Format settings                          : BVOP2
Format settings, BVOP                    : 2
Format settings, QPel                    : No
Format settings, GMC                    : No warppoints
Format settings, Matrix                  : Default (MPEG)
Muxing mode                              : Packed bitstream
Codec ID                                : V_MS/VFW/FOURCC / XVID
Codec ID/Hint                            : XviD
Duration                                : 1 h 40 min
Bit rate                                : 1 578 kb/s
Width                                    : 720 pixels
Height                                  : 404 pixels
Display aspect ratio                    : 16:9
Frame rate mode                          : Constant
Frame rate                              : 24.000 FPS
Color space                              : YUV
Chroma subsampling                      : 4:2:0
Bit depth                                : 8 bits
Scan type                                : Progressive
Compression mode                        : Lossy
Bits/(Pixel*Frame)                      : 0.226
Stream size                              : 1.11 GiB (92%)
Title                                    : Kırk Yalan - 2019 | Filmbol.org
Writing library                          : XviD 64
Default                                  : Yes
Forced                                  : No

Audio
ID                                      : 2
Format                                  : MPEG Audio
Format version                          : Version 1
Format profile                          : Layer 3
Format settings                          : Joint stereo / MS Stereo
Codec ID                                : A_MPEG/L3
Codec ID/Hint                            : MP3
Duration                                : 1 h 40 min
Bit rate mode                            : Constant
Bit rate                                : 128 kb/s
Channel(s)                              : 2 channels
Sampling rate                            : 48.0 kHz
Frame rate                              : 41.667 FPS (1152 SPF)
Compression mode                        : Lossy
Stream size                              : 92.0 MiB (7%)
Title                                    : Kırk Yalan - 2019 | Filmbol.org
Writing library                          : LAME3.99.5
Default                                  : Yes
Forced                                  : No

Film Detayları


 Kırk Yalan

 Kırk Yalan

 Kırk Yalan


Film Fragmanı


Film Detayları


Uptobox ile indir

1Fichier ile indir

1Fichier'den İndiremiyor musun? Tıklayın!


Mega linki şuan da gizli. Kullanıma açmak için konuya yorum yapın ve ardından sayfayı yenileyin.

Mega


Bunun için üzgünüz ancak, bu linke sadece premium üyeler erişebilir.

Filmbol Cloud







Hızlı Menü: