Filmbol Forum Film İndir FHD - FULL HD v Yanık Portakal (The Burnt Orange) - 2019 - TR+ORG - FHD - x264 | tt8342680

Premium Üyelik Al

Bildirimi Kapat
Mega linklerinin şikayet edilmemesi için global erişime kapatıp sadece yorum yapanlara açıyoruz. Bu linkleri gizleme işlemini mecburen yapıyoruz ve yorum yapmanızın siteye değil size faydası vardır. Teşekkürler yazmayı çok görüp, Random/Spam/Anlamsız mesajlar atarak forumu kirletip Mega linklerini açmaya çalışan kullanıcılara süresiz ban atacağız.


Yanık Portakal (The Burnt Orange) - 2019 - TR+ORG - FHD - x264 | tt8342680
TheSteeL
Yanık Portakal (The Burnt Orange) - 2019 - TR+ORG - FHD - x264 | tt8342680
0
95
  • Derecelendirme: 0/5 - 0 oy
  • 1
  • 2
  • 3
  • 4
  • 5
Konuyu Okuyanlar:1 Ziyaretçi
Şuan Online!
Filmin Yayınlanma Tarihi: 2019 
WWW
Şuan Online!
TheSteeL Süper Moderatör
*****
Süper Moderatör



 Yanık Portakal



Romandan uyarlanan "The Burnt Orange Heresy" filmi, fazlasıyla çekici ve hırslı olan James Figueras'a mercek tutuyor. James çekiciliğini kullanarak bazı pis işler yapmaktadır. Bu işlerden bir tanesi de Jerome Debney'in bir eserini çalmaktır. Ücret karşılığında bu işi yapan James, zamanla Jerome'i tanır ve hayata bakış açısı birdenbire değişir. Bu işten vazgeçen James, hayatını değiştirme kararı alacaktır...

Yanık Portakal (2019) (The Burnt Orange) | tt8342680 Filmi Imdb'den 3000 kişi tarafından oylandı ve 6,0 puan aldı. Bu film için editör puanı %68 olarak belirlendi. İyi Seyirler!

Teknik Detaylar

Kod :
General
Unique ID                                : 248982532289326806427659269430756847580 (0xBB504A9CE54956F82D9D82B6F5152FDC)
Complete name                            : /home/TheSteel/Desktop/1/Yanık.Portakal.2019.FHD.WEB-DL.x264.TR.ENG.Filmbol.mkv
Format                                   : Matroska
Format version                           : Version 4
File size                                : 6.10 GiB
Duration                                 : 1 h 38 min
Overall bit rate                         : 8 909 kb/s
Movie name                               : The Burnt Orange Heresy - Yanık Portakal - 2019 | Filmbol.org
Encoded date                             : UTC 2021-03-24 10:50:09
Writing application                      : mkvmerge v31.0.0 ('Dolores In A Shoestand') 64-bit
Writing library                          : libebml v1.3.6 + libmatroska v1.4.9

Video
ID                                       : 1
Format                                   : AVC
Format/Info                              : Advanced Video Codec
Format profile                           : [email protected]
Format settings                          : CABAC / 4 Ref Frames
Format settings, CABAC                   : Yes
Format settings, Reference frames        : 4 frames
Codec ID                                 : V_MPEG4/ISO/AVC
Duration                                 : 1 h 38 min
Bit rate mode                            : Constant
Bit rate                                 : 8 075 kb/s
Nominal bit rate                         : 10 000 kb/s
Width                                    : 1 920 pixels
Height                                   : 800 pixels
Display aspect ratio                     : 2.40:1
Frame rate mode                          : Constant
Frame rate                               : 23.976 (24000/1001) FPS
Color space                              : YUV
Chroma subsampling                       : 4:2:0
Bit depth                                : 8 bits
Scan type                                : Progressive
Bits/(Pixel*Frame)                       : 0.219
Stream size                              : 5.53 GiB (91%)
Title                                    : The Burnt Orange Heresy - Yanık Portakal - 2019 | Filmbol.org
Default                                  : Yes
Forced                                   : No
Color range                              : Limited
Color primaries                          : BT.709
Transfer characteristics                 : BT.709
Matrix coefficients                      : BT.709

Audio #1
ID                                       : 2
Format                                   : AC-3
Format/Info                              : Audio Coding 3
Commercial name                          : Dolby Digital
Codec ID                                 : A_AC3
Duration                                 : 1 h 37 min
Bit rate mode                            : Constant
Bit rate                                 : 192 kb/s
Channel(s)                               : 2 channels
Channel layout                           : L R
Sampling rate                            : 48.0 kHz
Frame rate                               : 31.250 FPS (1536 SPF)
Compression mode                         : Lossy
Stream size                              : 134 MiB (2%)
Title                                    : The Burnt Orange Heresy - Yanık Portakal - 2019 | Filmbol.org
Language                                 : Turkish
Service kind                             : Complete Main
Default                                  : Yes
Forced                                   : No

Audio #2
ID                                       : 3
Format                                   : AC-3
Format/Info                              : Audio Coding 3
Commercial name                          : Dolby Digital
Codec ID                                 : A_AC3
Duration                                 : 1 h 38 min
Bit rate mode                            : Constant
Bit rate                                 : 640 kb/s
Channel(s)                               : 6 channels
Channel layout                           : L R C LFE Ls Rs
Sampling rate                            : 48.0 kHz
Frame rate                               : 31.250 FPS (1536 SPF)
Compression mode                         : Lossy
Stream size                              : 449 MiB (7%)
Title                                    : The Burnt Orange Heresy - Yanık Portakal - 2019 | Filmbol.org
Language                                 : English
Service kind                             : Complete Main
Default                                  : No
Forced                                   : No

Text
ID                                       : 4
Format                                   : UTF-8
Codec ID                                 : S_TEXT/UTF8
Codec ID/Info                            : UTF-8 Plain Text
Duration                                 : 1 h 30 min
Bit rate                                 : 60 b/s
Count of elements                        : 1059
Stream size                              : 40.0 KiB (0%)
Title                                    : The Burnt Orange Heresy - Yanık Portakal - 2019 | Filmbol.org
Language                                 : Turkish
Default                                  : No
Forced                                   : No

Film Detayları


 Yanık Portakal

 Yanık Portakal

 Yanık Portakal


Film Fragmanı


Film Detayları

Bunun için üzgünüz ancak, bu linke sadece premium üyeler erişebilir.

Filmbol Cloud







Hızlı Menü: