Filmbol Forum Film İndir BRRip XviD v Yanık Portakal (The Burnt Orange) - 2019 - TR - BRRip XviD | tt8342680
Bildirimi Kapat
Server kaynaklı problemden dolayı ciddi bir sorun yaşadık. Şuanda forum ve portal aktif halde ancak bazı problemler hala devam ediyor. Problem gördüğünüz yerleri bize bildirmeniz çok önemli. Teşekkürler.

Bildirimi Kapat
Merhaba , site giderlerini bir nebze olsun karşılamak adına link kısaltma servisleri kullanmaya başladık. İndirme linkleri sizi ouo.io adresinde yönlendirecek, 3 saniye geçtikten sonra Get Link butonuna tıklayarak linke ulaşacaksınız. Premium üyeler bu durumdan etkilenmeyecektir.


Premium Üyelik Al

Yanık Portakal (The Burnt Orange) - 2019 - TR - BRRip XviD | tt8342680
TheSteeL
Yanık Portakal (The Burnt Orange) - 2019 - TR - BRRip XviD | tt8342680
0
92
  • Derecelendirme: 0/5 - 0 oy
  • 1
  • 2
  • 3
  • 4
  • 5
Konuyu Okuyanlar:1 Ziyaretçi
Şuan Online!
Filmin Yayınlanma Tarihi: 2019 
Şuan Online!
TheSteeL Chief Executive Officer
******
CEO



 Yanık Portakal



Romandan uyarlanan "The Burnt Orange Heresy" filmi, fazlasıyla çekici ve hırslı olan James Figueras'a mercek tutuyor. James çekiciliğini kullanarak bazı pis işler yapmaktadır. Bu işlerden bir tanesi de Jerome Debney'in bir eserini çalmaktır. Ücret karşılığında bu işi yapan James, zamanla Jerome'i tanır ve hayata bakış açısı birdenbire değişir. Bu işten vazgeçen James, hayatını değiştirme kararı alacaktır...

Yanık Portakal (2019) (The Burnt Orange) | tt8342680 Filmi Imdb'den 3000 kişi tarafından oylandı ve 6,0 puan aldı. Bu film için editör puanı %68 olarak belirlendi. İyi Seyirler!

Teknik Detaylar

Kod :
General
Unique ID                                : 317062682947942246466798718548287493739 (0xEE880D3150594518F829767379F9166B)
Complete name                            : /home/TheSteel/Desktop/1/Yanık.Portakal.2019.HDRip.XViD.TR.Filmbol.avi
Format                                  : Matroska
Format version                          : Version 4
File size                                : 1.35 GiB
Duration                                : 1 h 38 min
Overall bit rate                        : 1 966 kb/s
Movie name                              : The Burnt Orange Heresy - Yanık Portakal - 2019 | Filmbol.org
Encoded date                            : UTC 2021-03-24 10:56:25
Writing application                      : mkvmerge v31.0.0 ('Dolores In A Shoestand') 64-bit
Writing library                          : libebml v1.3.6 + libmatroska v1.4.9
FileExtension_Invalid                    : mkv mk3d mka mks

Video
ID                                      : 1
Format                                  : MPEG-4 Visual
Format profile                          : Advanced [email protected]
Format settings                          : BVOP1 / Custom Matrix
Format settings, BVOP                    : 1
Format settings, QPel                    : No
Format settings, GMC                    : No warppoints
Format settings, Matrix                  : Custom
Codec ID                                : V_MS/VFW/FOURCC / XVID
Codec ID/Hint                            : XviD
Duration                                : 1 h 38 min
Bit rate                                : 1 836 kb/s
Width                                    : 720 pixels
Height                                  : 304 pixels
Display aspect ratio                    : 2.40:1
Original display aspect ratio            : 2.40:1
Frame rate mode                          : Constant
Frame rate                              : 23.976 (24000/1001) FPS
Color space                              : YUV
Chroma subsampling                      : 4:2:0
Bit depth                                : 8 bits
Scan type                                : Progressive
Compression mode                        : Lossy
Bits/(Pixel*Frame)                      : 0.350
Stream size                              : 1.26 GiB (93%)
Title                                    : The Burnt Orange Heresy - Yanık Portakal - 2019 | Filmbol.org
Writing library                          : XviD 67
Default                                  : Yes
Forced                                  : No

Audio
ID                                      : 2
Format                                  : MPEG Audio
Format version                          : Version 1
Format profile                          : Layer 3
Format settings                          : Joint stereo / MS Stereo
Codec ID                                : A_MPEG/L3
Codec ID/Hint                            : MP3
Duration                                : 1 h 37 min
Bit rate mode                            : Constant
Bit rate                                : 128 kb/s
Channel(s)                              : 2 channels
Sampling rate                            : 48.0 kHz
Frame rate                              : 41.667 FPS (1152 SPF)
Compression mode                        : Lossy
Stream size                              : 89.6 MiB (6%)
Title                                    : The Burnt Orange Heresy - Yanık Portakal - 2019 | Filmbol.org
Default                                  : Yes
Forced                                  : No

Film Detayları


 Yanık Portakal

 Yanık Portakal

 Yanık Portakal


Film Fragmanı


Film İndir



Zip Şifresi: filmbol.org Aşağıdaki butona tıklayarak kopyalabilirsiniz.



Uptobox ile indir

1Fichier ile indir

1Fichier'den İndiremiyor musun? Tıklayın!






Filmbol Cloud

Bunun için üzgünüz ancak, bu linke sadece premium üyeler erişebilir.




WWW


Hızlı Menü: