Filmbol Forum Film İndir BRRip XviD v Yanık Portakal (The Burnt Orange) - 2019 - TR - BRRip XviD | tt8342680
Mega linklerinin şikayet edilmemesi için global erişime kapatıp sadece yorum yapanlara açıyoruz. Bu linkleri gizleme işlemini mecburen yapıyoruz ve yorum yapmanızın siteye değil size faydası vardır. Teşekürler yazmayı çok görüp, Random/Spam mesajlar atarak Mega linklerini açmaya çalışan kullanıcılara önce süresiz ban, devam ederse IP ban atacağız.
Filmbol'da moderatör olmak ister misiniz? Bizimle iletişime geçmek için tıklayın!
Yanık Portakal (The Burnt Orange) - 2019 - TR - BRRip XviD | tt8342680
TheSteeL
Yanık Portakal (The Burnt Orange) - 2019 - TR - BRRip XviD | tt8342680
0
41
  • Derecelendirme: 0/5 - 0 oy
  • 1
  • 2
  • 3
  • 4
  • 5
Konuyu Okuyanlar:1 Ziyaretçi
Şuan Online!
Filmin Yayınlanma Tarihi: 2019 
WWW
Şuan Online!
TheSteeL Süper Moderatör
*****
Süper Moderatör




 Yanık Portakal



Romandan uyarlanan "The Burnt Orange Heresy" filmi, fazlasıyla çekici ve hırslı olan James Figueras'a mercek tutuyor. James çekiciliğini kullanarak bazı pis işler yapmaktadır. Bu işlerden bir tanesi de Jerome Debney'in bir eserini çalmaktır. Ücret karşılığında bu işi yapan James, zamanla Jerome'i tanır ve hayata bakış açısı birdenbire değişir. Bu işten vazgeçen James, hayatını değiştirme kararı alacaktır...

Yanık Portakal (2019) (The Burnt Orange) | tt8342680 Filmi Imdb'den 3000 kişi tarafından oylandı ve 6,0 puan aldı. Bu film için editör puanı %68 olarak belirlendi. İyi Seyirler!

Teknik Detaylar

Kod :
General
Unique ID                                : 317062682947942246466798718548287493739 (0xEE880D3150594518F829767379F9166B)
Complete name                            : /home/TheSteel/Desktop/1/Yanık.Portakal.2019.HDRip.XViD.TR.Filmbol.avi
Format                                  : Matroska
Format version                          : Version 4
File size                                : 1.35 GiB
Duration                                : 1 h 38 min
Overall bit rate                        : 1 966 kb/s
Movie name                              : The Burnt Orange Heresy - Yanık Portakal - 2019 | Filmbol.org
Encoded date                            : UTC 2021-03-24 10:56:25
Writing application                      : mkvmerge v31.0.0 ('Dolores In A Shoestand') 64-bit
Writing library                          : libebml v1.3.6 + libmatroska v1.4.9
FileExtension_Invalid                    : mkv mk3d mka mks

Video
ID                                      : 1
Format                                  : MPEG-4 Visual
Format profile                          : Advanced [email protected]
Format settings                          : BVOP1 / Custom Matrix
Format settings, BVOP                    : 1
Format settings, QPel                    : No
Format settings, GMC                    : No warppoints
Format settings, Matrix                  : Custom
Codec ID                                : V_MS/VFW/FOURCC / XVID
Codec ID/Hint                            : XviD
Duration                                : 1 h 38 min
Bit rate                                : 1 836 kb/s
Width                                    : 720 pixels
Height                                  : 304 pixels
Display aspect ratio                    : 2.40:1
Original display aspect ratio            : 2.40:1
Frame rate mode                          : Constant
Frame rate                              : 23.976 (24000/1001) FPS
Color space                              : YUV
Chroma subsampling                      : 4:2:0
Bit depth                                : 8 bits
Scan type                                : Progressive
Compression mode                        : Lossy
Bits/(Pixel*Frame)                      : 0.350
Stream size                              : 1.26 GiB (93%)
Title                                    : The Burnt Orange Heresy - Yanık Portakal - 2019 | Filmbol.org
Writing library                          : XviD 67
Default                                  : Yes
Forced                                  : No

Audio
ID                                      : 2
Format                                  : MPEG Audio
Format version                          : Version 1
Format profile                          : Layer 3
Format settings                          : Joint stereo / MS Stereo
Codec ID                                : A_MPEG/L3
Codec ID/Hint                            : MP3
Duration                                : 1 h 37 min
Bit rate mode                            : Constant
Bit rate                                : 128 kb/s
Channel(s)                              : 2 channels
Sampling rate                            : 48.0 kHz
Frame rate                              : 41.667 FPS (1152 SPF)
Compression mode                        : Lossy
Stream size                              : 89.6 MiB (6%)
Title                                    : The Burnt Orange Heresy - Yanık Portakal - 2019 | Filmbol.org
Default                                  : Yes
Forced                                  : No

Film Detayları


 Yanık Portakal

 Yanık Portakal

 Yanık Portakal


Film Fragmanı


Film Detayları


Uptobox ile indir

1Fichier ile indir

1Fichier'den İndiremiyor musun? Tıklayın!


Mega linki şuan da gizli. Kullanıma açmak için konuya yorum yapın ve ardından sayfayı yenileyin.

Mega


Bunun için üzgünüz ancak, bu linke sadece premium üyeler erişebilir.

Filmbol Cloud







Konu ile Alakalı Benzer Konular
Konular Yazar Yorumlar Okunma Son Yorum
Filmin Yayınlanma Tarihi: 2021
Donma Noktası (Below Zero) - 2021 - TR - BRRip XviD TheSteeL 4 92 , Saat: 01:39
Son Yorum: TheSteeL
Filmin Yayınlanma Tarihi: 2015
Yeni Ahit (Le tout nouveau testament) - 2015 - TR - BRRip XviD | tt3792960 TheSteeL 0 9 , Saat: 23:51
Son Yorum: TheSteeL
Filmin Yayınlanma Tarihi: 2015
Diriliş (The Revenant) - 2015 - TR - BRRip XviD | tt1663202 BroserBros 4 3,533 , Saat: 19:42
Son Yorum: BroserBros
Filmin Yayınlanma Tarihi: 2018
Adalet 2 (The Equalizer 2) - 2018 - TR - BRRip XviD | tt3766354 BroserBros 4 934 , Saat: 19:30
Son Yorum: BroserBros
Filmin Yayınlanma Tarihi: 2019
Aslan Kral (The Lion King) - 2019 - TR - BRRip XviD | tt6105098 BroserBros 10 2,196 , Saat: 19:18
Son Yorum: BroserBros

Hızlı Menü: