Filmbol Forum Film İndir 720P v Sakkara'nın Sırları (Secrets of the Saqqara Tomb) - 2020 - TR+ORG - 720P | tt13150630

Premium Üyelik Al

Bildirimi Kapat
Mega linklerinin şikayet edilmemesi için global erişime kapatıp sadece yorum yapanlara açıyoruz. Bu linkleri gizleme işlemini mecburen yapıyoruz ve yorum yapmanızın siteye değil size faydası vardır. Teşekkürler yazmayı çok görüp, Random/Spam/Anlamsız mesajlar atarak forumu kirletip Mega linklerini açmaya çalışan kullanıcılara süresiz ban atacağız.


Sakkara'nın Sırları (Secrets of the Saqqara Tomb) - 2020 - TR+ORG - 720P | tt13150630
TheSteeL
Sakkara'nın Sırları (Secrets of the Saqqara Tomb) - 2020 - TR+ORG - 720P | tt13150630
10
242
  • Derecelendirme: 0/5 - 0 oy
  • 1
  • 2
  • 3
  • 4
  • 5
Konuyu Okuyanlar:1 Ziyaretçi
Şuan Online!
Filmin Yayınlanma Tarihi: 2020 
WWW
Şuan Online!
TheSteeL Süper Moderatör
*****
Süper Moderatör



 Sakkara'nın Sırları



Mısır.. Yüzyıllar boyunca dünyaya hükmetmiş, devrimler yapan ve ilklere imza atan bir ülke. Onun bu uzun hayatı, beraberinde çok farklı ve çözülmesi neredeyse imkânsız sırlar bırakıyor. Sakkara'nın Sırları filminde ise, bu sırlara açıklık getiren ve dünya tarihinde ilklere imza atan buluşlara imza atan ekibi konu ediniyor...

Sakkara'nın Sırları (2020) (Secrets of the Saqqara Tomb) | tt13150630 Filmi Imdb'den 5000 kişi tarafından oylandı ve 7,3 puan aldı. Bu film için editör puanı %75 olarak belirlendi. İyi Seyirler!

Teknik Detaylar

Kod :
General
Unique ID                                : 284969853360604101691041789518312970510 (0xD6633287B952F9128735CFC5766D190E)
Complete name                            : /home/TheSteel/Desktop/2/Sakkara.nın.Sırları.2020.720p.WEB-DL.x264.TR.ENG.Filmbol.mkv
Format                                   : Matroska
Format version                           : Version 4
File size                                : 1.48 GiB
Duration                                 : 1 h 54 min
Overall bit rate                         : 1 855 kb/s
Movie name                               : Secrets of the Saqqara Tomb - Sakkara'nın Sırları - 2020 | Filmbol.org
Encoded date                             : UTC 2021-03-23 18:24:30
Writing application                      : mkvmerge v31.0.0 ('Dolores In A Shoestand') 64-bit
Writing library                          : libebml v1.3.6 + libmatroska v1.4.9

Video
ID                                       : 1
Format                                   : AVC
Format/Info                              : Advanced Video Codec
Format profile                           : [email protected]
Format settings                          : CABAC / 2 Ref Frames
Format settings, CABAC                   : Yes
Format settings, Reference frames        : 2 frames
Codec ID                                 : V_MPEG4/ISO/AVC
Duration                                 : 1 h 54 min
Bit rate                                 : 1 276 kb/s
Width                                    : 1 280 pixels
Height                                   : 720 pixels
Display aspect ratio                     : 16:9
Frame rate mode                          : Constant
Frame rate                               : 25.000 FPS
Color space                              : YUV
Chroma subsampling                       : 4:2:0
Bit depth                                : 8 bits
Scan type                                : Progressive
Bits/(Pixel*Frame)                       : 0.055
Stream size                              : 1.02 GiB (69%)
Title                                    : Secrets of the Saqqara Tomb - Sakkara'nın Sırları - 2020 | Filmbol.org
Language                                 : English
Default                                  : Yes
Forced                                   : No

Audio #1
ID                                       : 2
Format                                   : AC-3
Format/Info                              : Audio Coding 3
Commercial name                          : Dolby Digital
Codec ID                                 : A_AC3
Duration                                 : 1 h 54 min
Bit rate mode                            : Constant
Bit rate                                 : 384 kb/s
Channel(s)                               : 6 channels
Channel layout                           : L R C LFE Ls Rs
Sampling rate                            : 48.0 kHz
Frame rate                               : 31.250 FPS (1536 SPF)
Compression mode                         : Lossy
Stream size                              : 314 MiB (21%)
Title                                    : Secrets of the Saqqara Tomb - Sakkara'nın Sırları - 2020 | Filmbol.org
Language                                 : Turkish
Service kind                             : Complete Main
Default                                  : Yes
Forced                                   : No

Audio #2
ID                                       : 3
Format                                   : AC-3
Format/Info                              : Audio Coding 3
Commercial name                          : Dolby Digital
Codec ID                                 : A_AC3
Duration                                 : 1 h 54 min
Bit rate mode                            : Constant
Bit rate                                 : 192 kb/s
Channel(s)                               : 2 channels
Channel layout                           : L R
Sampling rate                            : 48.0 kHz
Frame rate                               : 31.250 FPS (1536 SPF)
Compression mode                         : Lossy
Stream size                              : 157 MiB (10%)
Title                                    : Secrets of the Saqqara Tomb - Sakkara'nın Sırları - 2020 | Filmbol.org
Language                                 : English
Service kind                             : Complete Main
Default                                  : No
Forced                                   : No

Text #1
ID                                       : 4
Format                                   : UTF-8
Codec ID                                 : S_TEXT/UTF8
Codec ID/Info                            : UTF-8 Plain Text
Duration                                 : 1 h 52 min
Bit rate                                 : 3 b/s
Count of elements                        : 78
Stream size                              : 3.23 KiB (0%)
Title                                    : Secrets of the Saqqara Tomb - Sakkara'nın Sırları - 2020 | Filmbol.org
Language                                 : Turkish
Default                                  : Yes
Forced                                   : Yes

Text #2
ID                                       : 5
Format                                   : UTF-8
Codec ID                                 : S_TEXT/UTF8
Codec ID/Info                            : UTF-8 Plain Text
Duration                                 : 1 h 52 min
Bit rate                                 : 56 b/s
Count of elements                        : 1325
Stream size                              : 46.6 KiB (0%)
Title                                    : Secrets of the Saqqara Tomb - Sakkara'nın Sırları - 2020 | Filmbol.org
Language                                 : Turkish
Default                                  : No
Forced                                   : No

Film Detayları


 Sakkara'nın Sırları

 Sakkara'nın Sırları

 Sakkara'nın Sırları


Film Fragmanı


Film Detayları

Uptobox ile indir

1Fichier ile indir

1Fichier'den İndiremiyor musun? Tıklayın!


Mega linki şuan da gizli. Kullanıma açmak için konuya yorum yapın ve ardından sayfayı yenileyin.

Mega


Bunun için üzgünüz ancak, bu linke sadece premium üyeler erişebilir.

Filmbol Cloud





Şuan Online!
Şuan Online!
okuryazaradam26 Uzman Üye
**
Uzman Üye

  • Konular0
  • Mesajlar8
  • Rep puanı 0
Gizem varsa bende varım Smile
Şuan Online!
Şuan Online!
TheSteeL Süper Moderatör
*****
Süper Moderatör

(25-03-2021, Saat: 02:18)okuryazaradam26 Adlı Kullanıcıdan Alıntı: Gizem varsa bende varım Smile
O zaman İyi Seyirler Dilerim @okuryazaradam26
Şuan Offine!
Şuan Offine!
rubsy Uzman Üye
**
Uzman Üye

  • Konular0
  • Mesajlar6
  • Rep puanı 0
tesekkürler
Şuan Online!
Şuan Online!
TheSteeL Süper Moderatör
*****
Süper Moderatör

(30-03-2021, Saat: 16:38)rubsy Adlı Kullanıcıdan Alıntı: tesekkürler
İyi Seyirler
Şuan Offine!
Şuan Offine!
bozer506 Yeni Üye
*
Üye

  • Konular0
  • Mesajlar3
  • Rep puanı 0
teşekkürler paylaşım için
Şuan Online!
Şuan Online!
TheSteeL Süper Moderatör
*****
Süper Moderatör

(31-03-2021, Saat: 14:33)bozer506 Adlı Kullanıcıdan Alıntı: teşekkürler paylaşım için
İyi Seyirler
Şuan Offine!
Şuan Offine!
erdalmeryem Uzman Üye
**
Uzman Üye

  • Konular0
  • Mesajlar7
  • Rep puanı 0
güzel
Şuan Online!
Şuan Online!
TheSteeL Süper Moderatör
*****
Süper Moderatör

(10-05-2021, Saat: 21:42)erdalmeryem Adlı Kullanıcıdan Alıntı: güzel
İyi Seyirler
Şuan Offine!
Şuan Offine!
estonyali Yeni Üye
*
Üye

  • Konular0
  • Mesajlar3
  • Rep puanı 0
Teşekkürler arkadaşlar


Hızlı Menü: