Filmbol Forum Film İndir BRRip XviD v Sakkara'nın Sırları (Secrets of the Saqqara Tomb) - 2020 - TR - BRRip XviD | tt13150630
Bildirimi Kapat
Üyelik alımları açıldı.


Bildirimi Kapat
Mega linklerinin şikayet edilmemesi için global erişime kapatıp sadece yorum yapanlara açıyoruz. Bu linkleri gizleme işlemini mecburen yapıyoruz ve yorum yapmanızın siteye değil size faydası vardır. Teşekkürler yazmayı çok görüp, Random/Spam/Anlamsız mesajlar atarak forumu kirletip Mega linklerini açmaya çalışan kullanıcılara süresiz ban atacağız.

Premium Üyelik Al

Sakkara'nın Sırları (Secrets of the Saqqara Tomb) - 2020 - TR - BRRip XviD | tt13150630
TheSteeL
Sakkara'nın Sırları (Secrets of the Saqqara Tomb) - 2020 - TR - BRRip XviD | tt13150630
0
122
  • Derecelendirme: 0/5 - 0 oy
  • 1
  • 2
  • 3
  • 4
  • 5
Konuyu Okuyanlar:2 Ziyaretçi
Şuan Online!
Filmin Yayınlanma Tarihi: 2020 
WWW
Şuan Online!
TheSteeL Süper Moderatör
*****
Süper Moderatör




 Sakkara'nın Sırları



Mısır.. Yüzyıllar boyunca dünyaya hükmetmiş, devrimler yapan ve ilklere imza atan bir ülke. Onun bu uzun hayatı, beraberinde çok farklı ve çözülmesi neredeyse imkânsız sırlar bırakıyor. Sakkara'nın Sırları filminde ise, bu sırlara açıklık getiren ve dünya tarihinde ilklere imza atan buluşlara imza atan ekibi konu ediniyor...

Sakkara'nın Sırları (2020) (Secrets of the Saqqara Tomb) | tt13150630 Filmi Imdb'den 5000 kişi tarafından oylandı ve 7,3 puan aldı. Bu film için editör puanı %75 olarak belirlendi. İyi Seyirler!

Teknik Detaylar

Kod :
General
Unique ID                                : 295308412468688076239699047630563741113 (0xDE2A54D945578EF724439304F2B08DB9)
Complete name                            : /home/TheSteel/Desktop/2/Sakkara.nın.Sırları.2020.HDRip.XViD.TR.Filmbol.avi
Format                                  : Matroska
Format version                          : Version 4
File size                                : 1.36 GiB
Duration                                : 1 h 54 min
Overall bit rate                        : 1 710 kb/s
Movie name                              : Secrets of the Saqqara Tomb - Sakkara'nın Sırları - 2020 | Filmbol.org
Encoded date                            : UTC 2021-03-23 18:27:56
Writing application                      : mkvmerge v31.0.0 ('Dolores In A Shoestand') 64-bit
Writing library                          : libebml v1.3.6 + libmatroska v1.4.9
FileExtension_Invalid                    : mkv mk3d mka mks

Video
ID                                      : 1
Format                                  : MPEG-4 Visual
Format profile                          : [email protected]
Format settings, BVOP                    : No
Format settings, QPel                    : No
Format settings, GMC                    : No warppoints
Format settings, Matrix                  : Default (H.263)
Codec ID                                : V_MS/VFW/FOURCC / XVID
Codec ID/Hint                            : XviD
Duration                                : 1 h 54 min
Bit rate                                : 1 581 kb/s
Width                                    : 720 pixels
Height                                  : 306 pixels
Display aspect ratio                    : 2.35:1
Frame rate mode                          : Constant
Frame rate                              : 25.000 FPS
Color space                              : YUV
Chroma subsampling                      : 4:2:0
Bit depth                                : 8 bits
Scan type                                : Progressive
Compression mode                        : Lossy
Bits/(Pixel*Frame)                      : 0.287
Stream size                              : 1.26 GiB (92%)
Title                                    : Secrets of the Saqqara Tomb - Sakkara'nın Sırları - 2020 | Filmbol.org
Writing library                          : Lavc58.35.100
Default                                  : Yes
Forced                                  : No

Audio
ID                                      : 2
Format                                  : MPEG Audio
Format version                          : Version 1
Format profile                          : Layer 3
Format settings                          : Joint stereo / MS Stereo
Codec ID                                : A_MPEG/L3
Codec ID/Hint                            : MP3
Duration                                : 1 h 54 min
Bit rate mode                            : Constant
Bit rate                                : 128 kb/s
Channel(s)                              : 2 channels
Sampling rate                            : 48.0 kHz
Frame rate                              : 41.667 FPS (1152 SPF)
Compression mode                        : Lossy
Stream size                              : 105 MiB (7%)
Title                                    : Secrets of the Saqqara Tomb - Sakkara'nın Sırları - 2020 | Filmbol.org
Default                                  : Yes
Forced                                  : No

Film Detayları


 Sakkara'nın Sırları

 Sakkara'nın Sırları

 Sakkara'nın Sırları


Film Fragmanı


Film Detayları


Uptobox ile indir

1Fichier ile indir

1Fichier'den İndiremiyor musun? Tıklayın!


Mega linki şuan da gizli. Kullanıma açmak için konuya yorum yapın ve ardından sayfayı yenileyin.

Mega


Bunun için üzgünüz ancak, bu linke sadece premium üyeler erişebilir.

Filmbol Cloud







Hızlı Menü: