Filmbol Forum Film İndir FHD - FULL HD v Rahatsız Ettiğim için Özür Dilerim (Sorry to Bother You) - 2018 - TR+ORG - FHD - x264 | tt5688932
Bildirimi Kapat
Üyelik alımları açıldı.


Bildirimi Kapat
Mega linklerinin şikayet edilmemesi için global erişime kapatıp sadece yorum yapanlara açıyoruz. Bu linkleri gizleme işlemini mecburen yapıyoruz ve yorum yapmanızın siteye değil size faydası vardır. Teşekkürler yazmayı çok görüp, Random/Spam/Anlamsız mesajlar atarak forumu kirletip Mega linklerini açmaya çalışan kullanıcılara süresiz ban atacağız.

Premium Üyelik Al

Rahatsız Ettiğim için Özür Dilerim (Sorry to Bother You) - 2018 - TR+ORG - FHD - x264 | tt5688932
TheSteeL
Rahatsız Ettiğim için Özür Dilerim (Sorry to Bother You) - 2018 - TR+ORG - FHD - x264 | tt5688932
0
80
  • Derecelendirme: 0/5 - 0 oy
  • 1
  • 2
  • 3
  • 4
  • 5
Konuyu Okuyanlar:2 Ziyaretçi
Şuan Online!
Filmin Yayınlanma Tarihi: 2018 
WWW
Şuan Online!
TheSteeL Süper Moderatör
*****
Süper Moderatör



 Rahatsız Ettiğim için Özür Dilerim



Green, iyi bir tele pazarlamacı olsa da, iyi olması onun için yetersizdir. Kendini sürekli olarak geliştirmek isteyen Green, kendini mükemmel seviyeye çıkaracak bir anahtar bulur. Fakat bu anahtarın bazı bedelleri vardır ve bunlar büyük bedellerdir...

Rahatsız Ettiğim için Özür Dilerim (2018) (Sorry to Bother You) | tt5688932 Filmi Imdb'den 67000 kişi tarafından oylandı ve 6,9 puan aldı. Bu film için editör puanı %70 olarak belirlendi. İyi Seyirler!

Teknik Detaylar

Kod :
General
Unique ID                                : 227809935284913343340206607900820117894 (0xAB6298FC46703668A6874EE8725C1986)
Complete name                            : /home/TheSteel/Desktop/1/Rahatsız.Ettiğim.İçin.Özür.Dilerim.2018.FHD.BluRay.x264.TR.ENG.Filmbol.mkv
Format                                   : Matroska
Format version                           : Version 4
File size                                : 7.77 GiB
Duration                                 : 1 h 50 min
Overall bit rate                         : 10.0 Mb/s
Movie name                               : Sorry to Bother You - Rahatsız Ettiğim için Özür Dilerim - 2018 | Filmbol.org
Encoded date                             : UTC 2021-03-23 20:13:24
Writing application                      : mkvmerge v31.0.0 ('Dolores In A Shoestand') 64-bit
Writing library                          : libebml v1.3.6 + libmatroska v1.4.9

Video
ID                                       : 1
Format                                   : AVC
Format/Info                              : Advanced Video Codec
Format profile                           : [email protected]
Format settings                          : CABAC / 5 Ref Frames
Format settings, CABAC                   : Yes
Format settings, Reference frames        : 5 frames
Codec ID                                 : V_MPEG4/ISO/AVC
Duration                                 : 1 h 50 min
Bit rate                                 : 8 756 kb/s
Width                                    : 1 920 pixels
Height                                   : 808 pixels
Display aspect ratio                     : 2.40:1
Frame rate mode                          : Constant
Frame rate                               : 23.976 FPS
Color space                              : YUV
Chroma subsampling                       : 4:2:0
Bit depth                                : 8 bits
Scan type                                : Progressive
Bits/(Pixel*Frame)                       : 0.235
Stream size                              : 6.78 GiB (87%)
Title                                    : Sorry to Bother You - Rahatsız Ettiğim için Özür Dilerim - 2018 | Filmbol.org
Writing library                          : x264 core 157 r2932 303c484
Encoding settings                        : cabac=1 / ref=5 / deblock=1:0:0 / analyse=0x3:0x133 / me=umh / subme=7 / psy=1 / psy_rd=1.00:0.00 / mixed_ref=1 / me_range=16 / chroma_me=1 / trellis=1 / 8x8dct=1 / cqm=0 / deadzone=21,11 / fast_pskip=0 / chroma_qp_offset=-2 / threads=25 / lookahead_threads=4 / sliced_threads=0 / nr=0 / decimate=1 / interlaced=0 / bluray_compat=0 / constrained_intra=0 / bframes=3 / b_pyramid=2 / b_adapt=1 / b_bias=0 / direct=1 / weightb=1 / open_gop=0 / weightp=2 / keyint=250 / keyint_min=23 / scenecut=40 / intra_refresh=0 / rc_lookahead=40 / rc=2pass / mbtree=1 / bitrate=8756 / ratetol=1.0 / qcomp=0.60 / qpmin=0 / qpmax=69 / qpstep=4 / cplxblur=20.0 / qblur=0.5 / ip_ratio=1.40 / aq=1:1.00
Language                                 : English
Default                                  : Yes
Forced                                   : No

Audio #1
ID                                       : 2
Format                                   : AC-3
Format/Info                              : Audio Coding 3
Commercial name                          : Dolby Digital
Codec ID                                 : A_AC3
Duration                                 : 1 h 50 min
Bit rate mode                            : Constant
Bit rate                                 : 640 kb/s
Channel(s)                               : 6 channels
Channel layout                           : L R C LFE Ls Rs
Sampling rate                            : 48.0 kHz
Frame rate                               : 31.250 FPS (1536 SPF)
Compression mode                         : Lossy
Stream size                              : 507 MiB (6%)
Title                                    : Sorry to Bother You - Rahatsız Ettiğim için Özür Dilerim - 2018 | Filmbol.org
Language                                 : Turkish
Service kind                             : Complete Main
Default                                  : Yes
Forced                                   : No

Audio #2
ID                                       : 3
Format                                   : AC-3
Format/Info                              : Audio Coding 3
Commercial name                          : Dolby Digital
Codec ID                                 : A_AC3
Duration                                 : 1 h 50 min
Bit rate mode                            : Constant
Bit rate                                 : 640 kb/s
Channel(s)                               : 6 channels
Channel layout                           : L R C LFE Ls Rs
Sampling rate                            : 48.0 kHz
Frame rate                               : 31.250 FPS (1536 SPF)
Compression mode                         : Lossy
Stream size                              : 507 MiB (6%)
Title                                    : Sorry to Bother You - Rahatsız Ettiğim için Özür Dilerim - 2018 | Filmbol.org
Language                                 : English
Service kind                             : Complete Main
Default                                  : No
Forced                                   : No

Text #1
ID                                       : 4
Format                                   : UTF-8
Codec ID                                 : S_TEXT/UTF8
Codec ID/Info                            : UTF-8 Plain Text
Duration                                 : 1 h 49 min
Bit rate                                 : 2 b/s
Count of elements                        : 74
Stream size                              : 2.11 KiB (0%)
Title                                    : Sorry to Bother You - Rahatsız Ettiğim için Özür Dilerim - 2018 | Filmbol.org
Language                                 : Turkish
Default                                  : Yes
Forced                                   : No

Text #2
ID                                       : 5
Format                                   : UTF-8
Codec ID                                 : S_TEXT/UTF8
Codec ID/Info                            : UTF-8 Plain Text
Duration                                 : 1 h 49 min
Bit rate                                 : 71 b/s
Count of elements                        : 1704
Stream size                              : 57.2 KiB (0%)
Title                                    : Sorry to Bother You - Rahatsız Ettiğim için Özür Dilerim - 2018 | Filmbol.org
Language                                 : Turkish
Default                                  : No
Forced                                   : No

Film Detayları


 Rahatsız Ettiğim için Özür Dilerim

 Rahatsız Ettiğim için Özür Dilerim

 Rahatsız Ettiğim için Özür Dilerim


Film Fragmanı


Film Detayları

Mega linki şuan da gizli. Kullanıma açmak için konuya yorum yapın ve ardından sayfayı yenileyin.

Mega


Bunun için üzgünüz ancak, bu linke sadece premium üyeler erişebilir.

Filmbol Cloud







Hızlı Menü: