Filmbol Forum Film İndir BRRip XviD v Rahatsız Ettiğim için Özür Dilerim (Sorry to Bother You) - 2018 - TR - BRRip XviD | tt5688932

Premium Üyelik Al

Bildirimi Kapat
Mega linklerinin şikayet edilmemesi için global erişime kapatıp sadece yorum yapanlara açıyoruz. Bu linkleri gizleme işlemini mecburen yapıyoruz ve yorum yapmanızın siteye değil size faydası vardır. Teşekkürler yazmayı çok görüp, Random/Spam/Anlamsız mesajlar atarak forumu kirletip Mega linklerini açmaya çalışan kullanıcılara süresiz ban atacağız.


Rahatsız Ettiğim için Özür Dilerim (Sorry to Bother You) - 2018 - TR - BRRip XviD | tt5688932
TheSteeL
Rahatsız Ettiğim için Özür Dilerim (Sorry to Bother You) - 2018 - TR - BRRip XviD | tt5688932
0
88
  • Derecelendirme: 0/5 - 0 oy
  • 1
  • 2
  • 3
  • 4
  • 5
Konuyu Okuyanlar:1 Ziyaretçi
Şuan Online!
Filmin Yayınlanma Tarihi: 2018 
WWW
Şuan Online!
TheSteeL Süper Moderatör
*****
Süper Moderatör




 Rahatsız Ettiğim için Özür Dilerim



Green, iyi bir tele pazarlamacı olsa da, iyi olması onun için yetersizdir. Kendini sürekli olarak geliştirmek isteyen Green, kendini mükemmel seviyeye çıkaracak bir anahtar bulur. Fakat bu anahtarın bazı bedelleri vardır ve bunlar büyük bedellerdir...

Rahatsız Ettiğim için Özür Dilerim (2018) (Sorry to Bother You) | tt5688932 Filmi Imdb'den 67000 kişi tarafından oylandı ve 6,9 puan aldı. Bu film için editör puanı %70 olarak belirlendi. İyi Seyirler!

Teknik Detaylar

Kod :
General
Unique ID                                : 75728461240139543362370137596638330897 (0x38F8C567C21CD75E76015A01F16D0011)
Complete name                            : /home/TheSteel/Desktop/1/Rahatsız.Ettiğim.İçin.Özür.Dilerim.2018.BDRip.XViD.TR.Filmbol.avi
Format                                  : Matroska
Format version                          : Version 4
File size                                : 1.21 GiB
Duration                                : 1 h 50 min
Overall bit rate                        : 1 559 kb/s
Movie name                              : Sorry to Bother You - Rahatsız Ettiğim için Özür Dilerim - 2018 | Filmbol.org
Encoded date                            : UTC 2021-03-23 18:13:59
Writing application                      : mkvmerge v31.0.0 ('Dolores In A Shoestand') 64-bit
Writing library                          : libebml v1.3.6 + libmatroska v1.4.9
FileExtension_Invalid                    : mkv mk3d mka mks

Video
ID                                      : 1
Format                                  : MPEG-4 Visual
Format profile                          : Advanced [email protected]
Format settings                          : BVOP1 / Custom Matrix
Format settings, BVOP                    : 1
Format settings, QPel                    : No
Format settings, GMC                    : No warppoints
Format settings, Matrix                  : Custom
Codec ID                                : V_MS/VFW/FOURCC / XVID
Codec ID/Hint                            : XviD
Duration                                : 1 h 50 min
Bit rate                                : 1 429 kb/s
Width                                    : 720 pixels
Height                                  : 304 pixels
Display aspect ratio                    : 2.35:1
Frame rate mode                          : Constant
Frame rate                              : 23.976 (24000/1001) FPS
Color space                              : YUV
Chroma subsampling                      : 4:2:0
Bit depth                                : 8 bits
Scan type                                : Progressive
Compression mode                        : Lossy
Bits/(Pixel*Frame)                      : 0.272
Stream size                              : 1.11 GiB (92%)
Title                                    : Sorry to Bother You - Rahatsız Ettiğim için Özür Dilerim - 2018 | Filmbol.org
Writing library                          : XviD 73
Default                                  : Yes
Forced                                  : No

Audio
ID                                      : 2
Format                                  : MPEG Audio
Format version                          : Version 1
Format profile                          : Layer 3
Format settings                          : Joint stereo / MS Stereo
Codec ID                                : A_MPEG/L3
Codec ID/Hint                            : MP3
Duration                                : 1 h 50 min
Bit rate mode                            : Constant
Bit rate                                : 128 kb/s
Channel(s)                              : 2 channels
Sampling rate                            : 48.0 kHz
Frame rate                              : 41.667 FPS (1152 SPF)
Compression mode                        : Lossy
Stream size                              : 101 MiB (8%)
Title                                    : Sorry to Bother You - Rahatsız Ettiğim için Özür Dilerim - 2018 | Filmbol.org
Default                                  : Yes
Forced                                  : No

Film Detayları


 Rahatsız Ettiğim için Özür Dilerim

 Rahatsız Ettiğim için Özür Dilerim

 Rahatsız Ettiğim için Özür Dilerim


Film Fragmanı


Film Detayları


Uptobox ile indir

1Fichier ile indir

1Fichier'den İndiremiyor musun? Tıklayın!


Mega linki şuan da gizli. Kullanıma açmak için konuya yorum yapın ve ardından sayfayı yenileyin.

Mega


Bunun için üzgünüz ancak, bu linke sadece premium üyeler erişebilir.

Filmbol Cloud







Hızlı Menü: