Filmbol Forum Film İndir FHD - FULL HD v The Craft: Legacy (The Craft: Legacy) - 2020 - TR+ORG - FHD - x264 | tt4685762
Mega linklerinin şikayet edilmemesi için global erişime kapatıp sadece yorum yapanlara açıyoruz. Bu linkleri gizleme işlemini mecburen yapıyoruz ve yorum yapmanızın siteye değil size faydası vardır. Teşekürler yazmayı çok görüp, Random/Spam mesajlar atarak Mega linklerini açmaya çalışan kullanıcılara önce süresiz ban, devam ederse IP ban atacağız.
Filmbol'da moderatör olmak ister misiniz? Bizimle iletişime geçmek için tıklayın!
The Craft: Legacy (The Craft: Legacy) - 2020 - TR+ORG - FHD - x264 | tt4685762
TheSteeL
The Craft: Legacy (The Craft: Legacy) - 2020 - TR+ORG - FHD - x264 | tt4685762
0
57
  • Derecelendirme: 0/5 - 0 oy
  • 1
  • 2
  • 3
  • 4
  • 5
Konuyu Okuyanlar:1 Ziyaretçi
Şuan Online!
Filmin Yayınlanma Tarihi: 2020 
WWW
Şuan Online!
TheSteeL Süper Moderatör
*****
Süper Moderatör



 The Craft: Legacy



Hannah, okulda sürekli dışlanan bir genç kızdır. Onun bu dışlanışının bazı sonuçları olur. Hannah bir karar verir ve dışlanan diğer kızlar ile bir grup kurarlar. Bu başlarda sıradan bir arkadaş gibi olsa da zamanla Hannah'ın intikam yemini üzerine grup farklı yöne sapar ve büyücülük konusunda yeni bir şeyler yapmaya başlarlar. Denemeleri olumlu sonuç veriyor ve gitgide güçleniyor olsalar da, bu durum çok uzun sürmeyecek, büyücülüğün onlara kardan çok zarar getirdiği anlaşılacaktır. Fakat bunu anlamaları çok geç olmuştur..

The Craft: Legacy (2020) (The Craft: Legacy) | tt4685762 Filmi Imdb'den 8500 kişi tarafından oylandı ve 4,4 puan aldı. Bu film için editör puanı %63 olarak belirlendi. İyi Seyirler!

Teknik Detaylar

Kod :
General
Unique ID                                : 201603243165988365155750084721299454434 (0x97AB5F4E63FF3F0CCC54EDCCDC2C79E2)
Complete name                            : /home/TheSteel/Desktop/1/The.Craft.Legacy.2020.FHD.BLURAY.x264.TR.ENG.Filmbol.mkv
Format                                   : Matroska
Format version                           : Version 4
File size                                : 9.19 GiB
Duration                                 : 1 h 34 min
Overall bit rate                         : 13.9 Mb/s
Movie name                               : The Craft: Legacy - 2020 | Filmbol.org
Encoded date                             : UTC 2021-03-22 19:46:10
Writing application                      : mkvmerge v31.0.0 ('Dolores In A Shoestand') 64-bit
Writing library                          : libebml v1.3.6 + libmatroska v1.4.9

Video
ID                                       : 1
Format                                   : AVC
Format/Info                              : Advanced Video Codec
Format profile                           : [email protected]
Format settings                          : CABAC / 5 Ref Frames
Format settings, CABAC                   : Yes
Format settings, Reference frames        : 5 frames
Codec ID                                 : V_MPEG4/ISO/AVC
Duration                                 : 1 h 34 min
Bit rate                                 : 13.1 Mb/s
Width                                    : 1 920 pixels
Height                                   : 804 pixels
Display aspect ratio                     : 2.40:1
Frame rate mode                          : Constant
Frame rate                               : 23.976 (24000/1001) FPS
Color space                              : YUV
Chroma subsampling                       : 4:2:0
Bit depth                                : 8 bits
Scan type                                : Progressive
Bits/(Pixel*Frame)                       : 0.354
Stream size                              : 8.64 GiB (94%)
Title                                    : The Craft: Legacy - 2020 | Filmbol.org
Writing library                          : x264 core 161 r3018+53 ~ Encoded by Mocunaman in Portugal
Encoding settings                        : cabac=1 / ref=5 / deblock=1:-3:-3 / analyse=0x3:0x113 / me=umh / subme=11 / psy=1 / fade_compensate=0.00 / psy_rd=1.00:0.00 / mixed_ref=1 / me_range=32 / chroma_me=1 / trellis=2 / 8x8dct=1 / cqm=0 / deadzone=21,11 / fast_pskip=0 / chroma_qp_offset=-2 / threads=25 / lookahead_threads=4 / sliced_threads=0 / nr=0 / decimate=0 / interlaced=0 / bluray_compat=0 / constrained_intra=0 / fgo=0 / bframes=8 / b_pyramid=2 / b_adapt=2 / b_bias=0 / direct=3 / weightb=1 / open_gop=0 / weightp=2 / keyint=250 / keyint_min=23 / scenecut=40 / intra_refresh=0 / rc_lookahead=60 / rc=crf / mbtree=0 / crf=17.8000 / qcomp=0.65 / qpmin=0:0:0 / qpmax=69:69:69 / qpstep=4 / vbv_maxrate=62500 / vbv_bufsize=78125 / crf_max=0.0 / nal_hrd=none / filler=0 / ip_ratio=1.30 / pb_ratio=1.20 / aq=3:0.90 / aq-sensitivity=10.00 / aq-factor=1.00:1.00:1.00 / aq2=0 / aq3=0 / zones=0,1680,crf=17.3/1704,5280,crf=17.3/10536,13861,crf=17.3/19885,26595,crf=17.3/39459,46699,crf=17.3/47347,51763,crf=16.8/54643,62576,crf=16.8/72248,82502,crf=16.8/87083,94307,crf=16.8/109991,120167,crf=17.3
Language                                 : English
Default                                  : Yes
Forced                                   : No
Color range                              : Limited
Color primaries                          : BT.709
Transfer characteristics                 : BT.709
Matrix coefficients                      : BT.709

Audio #1
ID                                       : 2
Format                                   : AC-3
Format/Info                              : Audio Coding 3
Commercial name                          : Dolby Digital
Codec ID                                 : A_AC3
Duration                                 : 1 h 34 min
Bit rate mode                            : Constant
Bit rate                                 : 192 kb/s
Channel(s)                               : 2 channels
Channel layout                           : L R
Sampling rate                            : 48.0 kHz
Frame rate                               : 31.250 FPS (1536 SPF)
Compression mode                         : Lossy
Stream size                              : 130 MiB (1%)
Title                                    : The Craft: Legacy - 2020 | Filmbol.org
Language                                 : Turkish
Service kind                             : Complete Main
Default                                  : Yes
Forced                                   : No

Audio #2
ID                                       : 3
Format                                   : AC-3
Format/Info                              : Audio Coding 3
Commercial name                          : Dolby Digital
Codec ID                                 : A_AC3
Duration                                 : 1 h 34 min
Bit rate mode                            : Constant
Bit rate                                 : 640 kb/s
Channel(s)                               : 6 channels
Channel layout                           : L R C LFE Ls Rs
Sampling rate                            : 48.0 kHz
Frame rate                               : 31.250 FPS (1536 SPF)
Compression mode                         : Lossy
Stream size                              : 432 MiB (5%)
Title                                    : The Craft: Legacy - 2020 | Filmbol.org
Language                                 : English
Service kind                             : Complete Main
Default                                  : No
Forced                                   : No

Text
ID                                       : 4
Format                                   : UTF-8
Codec ID                                 : S_TEXT/UTF8
Codec ID/Info                            : UTF-8 Plain Text
Duration                                 : 1 h 33 min
Bit rate                                 : 44 b/s
Count of elements                        : 1014
Stream size                              : 30.2 KiB (0%)
Title                                    : The Craft: Legacy - 2020 | Filmbol.org
Language                                 : Turkish
Default                                  : No
Forced                                   : No

Film Detayları


 The Craft: Legacy

 The Craft: Legacy

 The Craft: Legacy


Film Fragmanı


Film Detayları

Bunun için üzgünüz ancak, bu linke sadece premium üyeler erişebilir.

Filmbol Cloud







Konu ile Alakalı Benzer Konular
Konular Yazar Yorumlar Okunma Son Yorum
Filmin Yayınlanma Tarihi: 2021
Yıldırım Gücü (Thunder Force) - 2021 - TR+ORG - FHD - x264 | tt10121392 TheSteeL 0 6 7 saat önce
Son Yorum: TheSteeL
Filmin Yayınlanma Tarihi: 2012
Gerçeğin Peşinde (Man on a Ledge) - 2012 - TR+ORG - FHD - x264 | tt1568338 BroserBros 0 14 10-04-2021, Saat: 20:00
Son Yorum: BroserBros
Filmin Yayınlanma Tarihi: 2006
X-Men: Son Direniş (X-Men: The Last Stand) - 2006 - TR+ORG - FHD - x264 | tt0376994 BroserBros 0 14 10-04-2021, Saat: 19:46
Son Yorum: BroserBros
Filmin Yayınlanma Tarihi: 2003
X-Men 2 (X2: X-Men United) - 2003 - TR+ORG - FHD - x264 | tt0290334 BroserBros 0 13 10-04-2021, Saat: 18:57
Son Yorum: BroserBros
Filmin Yayınlanma Tarihi: 2000
X-Men 1 (X-Men) - 2000 - TR+ORG - FHD - x264 | tt0120903 BroserBros 0 12 10-04-2021, Saat: 18:44
Son Yorum: BroserBros

Hızlı Menü: