Filmbol Forum Film İndir BRRip XviD v The Craft: Legacy (The Craft: Legacy) - 2020 - TR - BRRip XviD | tt4685762
Bildirimi Kapat
Server kaynaklı problemden dolayı ciddi bir sorun yaşadık. Şuanda forum ve portal aktif halde ancak bazı problemler hala devam ediyor. Problem gördüğünüz yerleri bize bildirmeniz çok önemli. Teşekkürler.

Bildirimi Kapat
Merhaba , site giderlerini bir nebze olsun karşılamak adına link kısaltma servisleri kullanmaya başladık. İndirme linkleri sizi ouo.io adresinde yönlendirecek, 3 saniye geçtikten sonra Get Link butonuna tıklayarak linke ulaşacaksınız. Premium üyeler bu durumdan etkilenmeyecektir.


Premium Üyelik Al

The Craft: Legacy (The Craft: Legacy) - 2020 - TR - BRRip XviD | tt4685762
TheSteeL
The Craft: Legacy (The Craft: Legacy) - 2020 - TR - BRRip XviD | tt4685762
0
145
  • Derecelendirme: 0/5 - 0 oy
  • 1
  • 2
  • 3
  • 4
  • 5
Konuyu Okuyanlar:1 Ziyaretçi
Şuan Online!
Filmin Yayınlanma Tarihi: 2020 
Şuan Online!
TheSteeL Chief Executive Officer
******
CEO


 The Craft: Legacy



Hannah, okulda sürekli dışlanan bir genç kızdır. Onun bu dışlanışının bazı sonuçları olur. Hannah bir karar verir ve dışlanan diğer kızlar ile bir grup kurarlar. Bu başlarda sıradan bir arkadaş gibi olsa da zamanla Hannah'ın intikam yemini üzerine grup farklı yöne sapar ve büyücülük konusunda yeni bir şeyler yapmaya başlarlar. Denemeleri olumlu sonuç veriyor ve gitgide güçleniyor olsalar da, bu durum çok uzun sürmeyecek, büyücülüğün onlara kardan çok zarar getirdiği anlaşılacaktır. Fakat bunu anlamaları çok geç olmuştur..

The Craft: Legacy (2020) (The Craft: Legacy) | tt4685762 Filmi Imdb'den 8500 kişi tarafından oylandı ve 4,4 puan aldı. Bu film için editör puanı %63 olarak belirlendi. İyi Seyirler!

Teknik Detaylar

Kod :
General
Unique ID                                : 186931534901903046623407853851867005641 (0x8CA1B43D64A1D58CA912F3DC24EAC2C9)
Complete name                            : /home/TheSteel/Desktop/1/The.Craft.Legacy.2020.BDRip.XViD.TR.Filmbol.avi
Format                                   : Matroska
Format version                           : Version 4
File size                                : 741 MiB
Duration                                 : 1 h 34 min
Overall bit rate                         : 1 097 kb/s
Movie name                               : The Craft: Legacy - 2020 | Filmbol.org
Encoded date                             : UTC 2021-03-22 19:49:45
Writing application                      : mkvmerge v31.0.0 ('Dolores In A Shoestand') 64-bit
Writing library                          : libebml v1.3.6 + libmatroska v1.4.9
FileExtension_Invalid                    : mkv mk3d mka mks

Video
ID                                       : 1
Format                                   : MPEG-4 Visual
Format profile                           : Advanced [email protected]
Format settings                          : BVOP1 / Custom Matrix
Format settings, BVOP                    : 1
Format settings, QPel                    : No
Format settings, GMC                     : No warppoints
Format settings, Matrix                  : Custom
Codec ID                                 : V_MS/VFW/FOURCC / XVID
Codec ID/Hint                            : XviD
Duration                                 : 1 h 34 min
Bit rate                                 : 967 kb/s
Width                                    : 656 pixels
Height                                   : 272 pixels
Display aspect ratio                     : 2.40:1
Frame rate mode                          : Constant
Frame rate                               : 23.976 (23976/1000) FPS
Color space                              : YUV
Chroma subsampling                       : 4:2:0
Bit depth                                : 8 bits
Scan type                                : Progressive
Compression mode                         : Lossy
Bits/(Pixel*Frame)                       : 0.226
Stream size                              : 653 MiB (88%)
Title                                    : The Craft: Legacy - 2020 | Filmbol.org
Writing library                          : XviD 73
Default                                  : Yes
Forced                                   : No

Audio
ID                                       : 2
Format                                   : MPEG Audio
Format version                           : Version 1
Format profile                           : Layer 3
Format settings                          : Joint stereo
Codec ID                                 : A_MPEG/L3
Codec ID/Hint                            : MP3
Duration                                 : 1 h 34 min
Bit rate mode                            : Constant
Bit rate                                 : 128 kb/s
Channel(s)                               : 2 channels
Sampling rate                            : 48.0 kHz
Frame rate                               : 41.667 FPS (1152 SPF)
Compression mode                         : Lossy
Stream size                              : 86.4 MiB (12%)
Title                                    : The Craft: Legacy - 2020 | Filmbol.org
Writing library                          : LAME3.99.5
Default                                  : Yes
Forced                                   : No

Film Detayları


 The Craft: Legacy

 The Craft: Legacy

 The Craft: Legacy


Film Fragmanı


Film İndir



Zip Şifresi: filmbol.org Aşağıdaki butona tıklayarak kopyalabilirsiniz.



Uptobox ile indir

1Fichier ile indir

1Fichier'den İndiremiyor musun? Tıklayın!





Filmbol Cloud

Bunun için üzgünüz ancak, bu linke sadece premium üyeler erişebilir.




WWW


Hızlı Menü: