Filmbol Forum Film İndir BRRip XviD v The Craft: Legacy (The Craft: Legacy) - 2020 - TR - BRRip XviD | tt4685762
Mega linklerinin şikayet edilmemesi için global erişime kapatıp sadece yorum yapanlara açıyoruz. Bu linkleri gizleme işlemini mecburen yapıyoruz ve yorum yapmanızın siteye değil size faydası vardır. Teşekürler yazmayı çok görüp, Random/Spam mesajlar atarak Mega linklerini açmaya çalışan kullanıcılara önce süresiz ban, devam ederse IP ban atacağız.
Filmbol'da moderatör olmak ister misiniz? Bizimle iletişime geçmek için tıklayın!
The Craft: Legacy (The Craft: Legacy) - 2020 - TR - BRRip XviD | tt4685762
TheSteeL
The Craft: Legacy (The Craft: Legacy) - 2020 - TR - BRRip XviD | tt4685762
0
63
  • Derecelendirme: 0/5 - 0 oy
  • 1
  • 2
  • 3
  • 4
  • 5
Konuyu Okuyanlar:1 Ziyaretçi
Şuan Online!
Filmin Yayınlanma Tarihi: 2020 
WWW
Şuan Online!
TheSteeL Süper Moderatör
*****
Süper Moderatör



 The Craft: Legacy



Hannah, okulda sürekli dışlanan bir genç kızdır. Onun bu dışlanışının bazı sonuçları olur. Hannah bir karar verir ve dışlanan diğer kızlar ile bir grup kurarlar. Bu başlarda sıradan bir arkadaş gibi olsa da zamanla Hannah'ın intikam yemini üzerine grup farklı yöne sapar ve büyücülük konusunda yeni bir şeyler yapmaya başlarlar. Denemeleri olumlu sonuç veriyor ve gitgide güçleniyor olsalar da, bu durum çok uzun sürmeyecek, büyücülüğün onlara kardan çok zarar getirdiği anlaşılacaktır. Fakat bunu anlamaları çok geç olmuştur..

The Craft: Legacy (2020) (The Craft: Legacy) | tt4685762 Filmi Imdb'den 8500 kişi tarafından oylandı ve 4,4 puan aldı. Bu film için editör puanı %63 olarak belirlendi. İyi Seyirler!

Teknik Detaylar

Kod :
General
Unique ID                                : 186931534901903046623407853851867005641 (0x8CA1B43D64A1D58CA912F3DC24EAC2C9)
Complete name                            : /home/TheSteel/Desktop/1/The.Craft.Legacy.2020.BDRip.XViD.TR.Filmbol.avi
Format                                   : Matroska
Format version                           : Version 4
File size                                : 741 MiB
Duration                                 : 1 h 34 min
Overall bit rate                         : 1 097 kb/s
Movie name                               : The Craft: Legacy - 2020 | Filmbol.org
Encoded date                             : UTC 2021-03-22 19:49:45
Writing application                      : mkvmerge v31.0.0 ('Dolores In A Shoestand') 64-bit
Writing library                          : libebml v1.3.6 + libmatroska v1.4.9
FileExtension_Invalid                    : mkv mk3d mka mks

Video
ID                                       : 1
Format                                   : MPEG-4 Visual
Format profile                           : Advanced [email protected]
Format settings                          : BVOP1 / Custom Matrix
Format settings, BVOP                    : 1
Format settings, QPel                    : No
Format settings, GMC                     : No warppoints
Format settings, Matrix                  : Custom
Codec ID                                 : V_MS/VFW/FOURCC / XVID
Codec ID/Hint                            : XviD
Duration                                 : 1 h 34 min
Bit rate                                 : 967 kb/s
Width                                    : 656 pixels
Height                                   : 272 pixels
Display aspect ratio                     : 2.40:1
Frame rate mode                          : Constant
Frame rate                               : 23.976 (23976/1000) FPS
Color space                              : YUV
Chroma subsampling                       : 4:2:0
Bit depth                                : 8 bits
Scan type                                : Progressive
Compression mode                         : Lossy
Bits/(Pixel*Frame)                       : 0.226
Stream size                              : 653 MiB (88%)
Title                                    : The Craft: Legacy - 2020 | Filmbol.org
Writing library                          : XviD 73
Default                                  : Yes
Forced                                   : No

Audio
ID                                       : 2
Format                                   : MPEG Audio
Format version                           : Version 1
Format profile                           : Layer 3
Format settings                          : Joint stereo
Codec ID                                 : A_MPEG/L3
Codec ID/Hint                            : MP3
Duration                                 : 1 h 34 min
Bit rate mode                            : Constant
Bit rate                                 : 128 kb/s
Channel(s)                               : 2 channels
Sampling rate                            : 48.0 kHz
Frame rate                               : 41.667 FPS (1152 SPF)
Compression mode                         : Lossy
Stream size                              : 86.4 MiB (12%)
Title                                    : The Craft: Legacy - 2020 | Filmbol.org
Writing library                          : LAME3.99.5
Default                                  : Yes
Forced                                   : No

Film Detayları


 The Craft: Legacy

 The Craft: Legacy

 The Craft: Legacy


Film Fragmanı


Film Detayları


Uptobox ile indir

1Fichier ile indir

1Fichier'den İndiremiyor musun? Tıklayın!


Mega linki şuan da gizli. Kullanıma açmak için konuya yorum yapın ve ardından sayfayı yenileyin.

Mega


Bunun için üzgünüz ancak, bu linke sadece premium üyeler erişebilir.

Filmbol Cloud







Konu ile Alakalı Benzer Konular
Konular Yazar Yorumlar Okunma Son Yorum
Filmin Yayınlanma Tarihi: 2021
Donma Noktası (Below Zero) - 2021 - TR - BRRip XviD TheSteeL 4 92 , Saat: 01:39
Son Yorum: TheSteeL
Filmin Yayınlanma Tarihi: 2015
Yeni Ahit (Le tout nouveau testament) - 2015 - TR - BRRip XviD | tt3792960 TheSteeL 0 9 , Saat: 23:51
Son Yorum: TheSteeL
Filmin Yayınlanma Tarihi: 2015
Diriliş (The Revenant) - 2015 - TR - BRRip XviD | tt1663202 BroserBros 4 3,533 , Saat: 19:42
Son Yorum: BroserBros
Filmin Yayınlanma Tarihi: 2018
Adalet 2 (The Equalizer 2) - 2018 - TR - BRRip XviD | tt3766354 BroserBros 4 933 , Saat: 19:30
Son Yorum: BroserBros
Filmin Yayınlanma Tarihi: 2019
Aslan Kral (The Lion King) - 2019 - TR - BRRip XviD | tt6105098 BroserBros 10 2,196 , Saat: 19:18
Son Yorum: BroserBros

Hızlı Menü: